微博 微信

Hao4K影音

电视剧频道
电视剧封面:
电视剧名: 你 第二季4k
年  代: 2019  
国  家: 美国
类  别: 犯罪 惊悚 剧情 爱情 
语  言: 英语
字  幕: -
上映日期:
文件格式: mkv    
视频效果: 4K(3840x2160)    
资源大小: 53.72 GB
片  长: 50 分钟
导  演: 凯文·罗德尼·沙利文
剧情简介: 剧改编自卡罗琳·凯内斯的同名畅销小说。“为了爱情,你会做出什么?”一位才华横溢的书店老板邂逅一位有抱负的女作家后,明确了这个问题的答案:任何事情。他通过互联网和社交媒体收集关于她的一切私密信息,努力靠近她,并从自我陶醉而尴尬的一见钟情迅速转入病态迷恋,不动声色并巧妙地清除情路上的各种障碍,甚至包括活生生的人。该剧由佩恩·拜德格雷、伊丽莎白·莱尔、薛·米契尔、卢卡·帕多凡和扎克·切利主演。
安眠书店(台) / 为你凶情/你 第二季4k You.S02.2160p.NF.WEB-DL.x265.10bit.HDR.DDP5.1美剧信息
  1. Video
  2. ID : 1
  3. Format : HEVC
  4. Format/Info : High Efficiency Video Coding
  5. Format profile : Main 10@L5@Main
  6. HDR format : SMPTE ST 2086, HDR10 compatible
  7. Codec ID : V_MPEGH/ISO/HEVC
  8. Duration : 51 min 5 s
  9. Bit rate : 14.9 Mb/s
  10. Width : 3 840 pixels
  11. Height : 2 160 pixels
  12. Display aspect ratio : 16:9
  13. Frame rate mode : Constant
  14. Frame rate : 23.976 (24000/1001) FPS
  15. Color space : YUV
  16. Chroma subsampling : 4:2:0 (Type 2)
  17. Bit depth : 10 bits
  18. Bits/(Pixel*Frame) : 0.075
  19. Stream size : 5.32 GiB (94%)
  20. Default : Yes
  21. Forced : No
  22. Color range : Limited
  23. Color primaries : BT.2020
  24. Transfer characteristics : PQ
  25. Matrix coefficients : BT.2020 non-constant
  26. Mastering display color primaries : Display P3
  27. Mastering display luminance : min: 0.0001 cd/m2, max: 1000 cd/m2
  28. Maximum Content Light Level : 1097 cd/m2
  29. Maximum Frame-Average Light Level : 444 cd/m2

  30. Audio
  31. ID : 2
  32. Format : E-AC-3
  33. Format/Info : Enhanced AC-3
  34. Commercial name : Dolby Digital Plus
  35. Codec ID : A_EAC3
  36. Duration : 51 min 5 s
  37. Bit rate mode : Constant
  38. Bit rate : 640 kb/s
  39. Channel(s) : 6 channels
  40. Channel layout : L R C LFE Ls Rs
  41. Sampling rate : 48.0 kHz
  42. Frame rate : 31.250 FPS (1536 SPF)
  43. Compression mode : Lossy
  44. Stream size : 234 MiB (4%)
  45. Language : English
  46. Service kind : Complete Main
  47. Default : Yes
  48. Forced : No

  49. Text #1
  50. ID : 3
  51. Format : UTF-8
  52. Codec ID : S_TEXT/UTF8
  53. Codec ID/Info : UTF-8 Plain Text
  54. Language : English
  55. Default : No
  56. Forced : No

  57. Text #2
  58. ID : 4
  59. Format : UTF-8
  60. Codec ID : S_TEXT/UTF8
  61. Codec ID/Info : UTF-8 Plain Text
  62. Title : SDH
  63. Language : English
  64. Default : No
  65. Forced : No

  66. Text #3
  67. ID : 5
  68. Format : UTF-8
  69. Codec ID : S_TEXT/UTF8
  70. Codec ID/Info : UTF-8 Plain Text
  71. Language : Arabic
  72. Default : No
  73. Forced : No

  74. Text #4
  75. ID : 6
  76. Format : UTF-8
  77. Codec ID : S_TEXT/UTF8
  78. Codec ID/Info : UTF-8 Plain Text
  79. Title : Simplified
  80. Language : Chinese
  81. Default : No
  82. Forced : No

  83. Text #5
  84. ID : 7
  85. Format : UTF-8
  86. Codec ID : S_TEXT/UTF8
  87. Codec ID/Info : UTF-8 Plain Text
  88. Title : Traditional
  89. Language : Chinese
  90. Default : No
  91. Forced : No

  92. Text #6
  93. ID : 8
  94. Format : UTF-8
  95. Codec ID : S_TEXT/UTF8
  96. Codec ID/Info : UTF-8 Plain Text
  97. Language : Czech
  98. Default : No
  99. Forced : No

  100. Text #7
  101. ID : 9
  102. Format : UTF-8
  103. Codec ID : S_TEXT/UTF8
  104. Codec ID/Info : UTF-8 Plain Text
  105. Language : Danish
  106. Default : No
  107. Forced : No

  108. Text #8
  109. ID : 10
  110. Format : UTF-8
  111. Codec ID : S_TEXT/UTF8
  112. Codec ID/Info : UTF-8 Plain Text
  113. Language : Dutch
  114. Default : No
  115. Forced : No

  116. Text #9
  117. ID : 11
  118. Format : UTF-8
  119. Codec ID : S_TEXT/UTF8
  120. Codec ID/Info : UTF-8 Plain Text
  121. Language : Finnish
  122. Default : No
  123. Forced : No

  124. Text #10
  125. ID : 12
  126. Format : UTF-8
  127. Codec ID : S_TEXT/UTF8
  128. Codec ID/Info : UTF-8 Plain Text
  129. Language : French
  130. Default : No
  131. Forced : No

  132. Text #11
  133. ID : 13
  134. Format : UTF-8
  135. Codec ID : S_TEXT/UTF8
  136. Codec ID/Info : UTF-8 Plain Text
  137. Language : German
  138. Default : No
  139. Forced : No

  140. Text #12
  141. ID : 14
  142. Format : UTF-8
  143. Codec ID : S_TEXT/UTF8
  144. Codec ID/Info : UTF-8 Plain Text
  145. Language : Greek
  146. Default : No
  147. Forced : No

  148. Text #13
  149. ID : 15
  150. Format : UTF-8
  151. Codec ID : S_TEXT/UTF8
  152. Codec ID/Info : UTF-8 Plain Text
  153. Language : Hebrew
  154. Default : No
  155. Forced : No

  156. Text #14
  157. ID : 16
  158. Format : UTF-8
  159. Codec ID : S_TEXT/UTF8
  160. Codec ID/Info : UTF-8 Plain Text
  161. Language : Hungarian
  162. Default : No
  163. Forced : No

  164. Text #15
  165. ID : 17
  166. Format : UTF-8
  167. Codec ID : S_TEXT/UTF8
  168. Codec ID/Info : UTF-8 Plain Text
  169. Language : Indonesian
  170. Default : No
  171. Forced : No
复制代码

安眠书店(台) / 为你凶情/你 第二季4k You.S02.2160p.NF.WEB-DL.x265.10bit.HDR.DDP5.1美剧下载
你 第二季4k You.S02.2160p.NF.WEB-DL.x265.10bit.HDR.DDP5.1【53.72 GB】
世界之都:纽约 New York in 8K ULTRA HD - Capital of Earth (60FPS).torrent (42.32 KB)
回复

使用道具 举报

全部回复1

nbmsa 发表于 2021-9-1 13:37:56

nbmsa 推荐

2021-9-1 13:37:56

种子放错咯,提醒一下。。。。先谢了
回复 支持 1 反对 0

使用道具 举报

   发表回复

您需要登录后才可以回帖 登录 | 立即注册

返回列表 本版积分规则

  • 在线客服

  • 返回顶部