微博 微信

Hao4K影音

电影频道
电影封面:
片  名: 9.11.Inside.The.Presidents.War.Room
电影分类: 纪录片 
国  家: 美国 英国 
年  代: 2021年
分 辨 率: 4K(3840x2160)
电影格式: MKV|REMUX 
画质标准: HDR 
音质编码: Dolby Digital Plus Audio 
电影声道: 其他 
帧数/FPS: 23.976 帧
电影语言: 英文原版 
资源大小: 13.70 GB
导  演: Adam Wishart
豆瓣评分: 8.1 分
中文字幕: -
剧情简介: Apple announced “9/11: Inside the President\'s War Room,” a new documentary special that tells the story of 9/11 through the eyes of the presidency by gaining unprecedented access to the key decision makers who responded for the nation. Brought to audiences by Apple and the BBC, the documentary will make its global debut on Apple TV+ and BBC One this September, marking the 20th anniversary of the attack.
9.11.Inside.The.Presidents.War.Room.2021.2160p.WEB.h265-纪录片信息
  1. Video
  2. ID : 1
  3. Format : HEVC
  4. Format/Info : High Efficiency Video Coding
  5. Format profile : Main 10@L5@High
  6. Codec ID : V_MPEGH/ISO/HEVC
  7. Duration : 1 h 30 min
  8. Bit rate : 20.7 Mb/s
  9. Width : 3 840 pixels
  10. Height : 2 160 pixels
  11. Display aspect ratio : 16:9
  12. Frame rate mode : Constant
  13. Frame rate : 23.976 FPS
  14. Color space : YUV
  15. Chroma subsampling : 4:2:0
  16. Bit depth : 10 bits
  17. Bits/(Pixel*Frame) : 0.104
  18. Stream size : 13.1 GiB (96%)
  19. Language : English
  20. Default : Yes
  21. Forced : No
  22. Color range : Limited
  23. Color primaries : BT.709
  24. Transfer characteristics : BT.709
  25. Matrix coefficients : BT.709

  26. Audio
  27. ID : 2
  28. Format : E-AC-3 JOC
  29. Format/Info : Enhanced AC-3 with Joint Object Coding
  30. Commercial name : Dolby Digital Plus with Dolby Atmos
  31. Codec ID : A_EAC3
  32. Duration : 1 h 30 min
  33. Bit rate mode : Constant
  34. Bit rate : 768 kb/s
  35. Channel(s) : 6 channels
  36. Channel layout : L R C LFE Ls Rs
  37. Sampling rate : 48.0 kHz
  38. Frame rate : 31.250 FPS (1536 SPF)
  39. Compression mode : Lossy
  40. Stream size : 496 MiB (4%)
  41. Language : English
  42. Service kind : Complete Main
  43. Default : Yes
  44. Forced : No
  45. Complexity index : 16
  46. Number of dynamic objects : 15
  47. Bed channel count : 1 channel
  48. Bed channel configuration : LFE

  49. Text #1
  50. ID : 3
  51. Format : UTF-8
  52. Codec ID : S_TEXT/UTF8
  53. Codec ID/Info : UTF-8 Plain Text
  54. Duration : 1 h 29 min
  55. Bit rate : 135 b/s
  56. Count of elements : 1480
  57. Stream size : 89.5 KiB (0%)
  58. Title : العربية
  59. Language : Arabic
  60. Default : No
  61. Forced : No

  62. Text #2
  63. ID : 4
  64. Format : UTF-8
  65. Codec ID : S_TEXT/UTF8
  66. Codec ID/Info : UTF-8 Plain Text
  67. Duration : 1 h 29 min
  68. Bit rate : 149 b/s
  69. Count of elements : 1445
  70. Stream size : 98.4 KiB (0%)
  71. Title : български
  72. Language : Bulgarian
  73. Default : No
  74. Forced : No

  75. Text #3
  76. ID : 5
  77. Format : UTF-8
  78. Codec ID : S_TEXT/UTF8
  79. Codec ID/Info : UTF-8 Plain Text
  80. Duration : 1 h 29 min
  81. Bit rate : 85 b/s
  82. Count of elements : 1480
  83. Stream size : 56.0 KiB (0%)
  84. Title : 中文(简体)
  85. Language : Chinese
  86. Default : No
  87. Forced : No

  88. Text #4
  89. ID : 6
  90. Format : UTF-8
  91. Codec ID : S_TEXT/UTF8
  92. Codec ID/Info : UTF-8 Plain Text
  93. Duration : 1 h 29 min
  94. Bit rate : 85 b/s
  95. Count of elements : 1481
  96. Stream size : 56.0 KiB (0%)
  97. Title : 中文(繁體)
  98. Language : Chinese
  99. Default : No
  100. Forced : No

  101. Text #5
  102. ID : 7
  103. Format : UTF-8
  104. Codec ID : S_TEXT/UTF8
  105. Codec ID/Info : UTF-8 Plain Text
  106. Duration : 1 h 29 min
  107. Bit rate : 91 b/s
  108. Count of elements : 1412
  109. Stream size : 60.6 KiB (0%)
  110. Title : Čeština
  111. Language : Czech
  112. Default : No
  113. Forced : No

  114. Text #6
  115. ID : 8
  116. Format : UTF-8
  117. Codec ID : S_TEXT/UTF8
  118. Codec ID/Info : UTF-8 Plain Text
  119. Duration : 1 h 29 min
  120. Bit rate : 86 b/s
  121. Count of elements : 1472
  122. Stream size : 57.1 KiB (0%)
  123. Title : dansk
  124. Language : Danish
  125. Default : No
  126. Forced : No

  127. Text #7
  128. ID : 9
  129. Format : UTF-8
  130. Codec ID : S_TEXT/UTF8
  131. Codec ID/Info : UTF-8 Plain Text
  132. Duration : 1 h 29 min
  133. Bit rate : 90 b/s
  134. Count of elements : 1361
  135. Stream size : 59.3 KiB (0%)
  136. Title : Deutsch
  137. Language : German
  138. Default : No
  139. Forced : No

  140. Text #8
  141. ID : 10
  142. Format : UTF-8
  143. Codec ID : S_TEXT/UTF8
  144. Codec ID/Info : UTF-8 Plain Text
  145. Duration : 1 h 29 min
  146. Bit rate : 165 b/s
  147. Count of elements : 1422
  148. Stream size : 109 KiB (0%)
  149. Title : Ελληνικά
  150. Language : Greek
  151. Default : No
  152. Forced : No

  153. Text #9
  154. ID : 11
  155. Format : UTF-8
  156. Codec ID : S_TEXT/UTF8
  157. Codec ID/Info : UTF-8 Plain Text
  158. Duration : 1 h 28 min
  159. Bit rate : 99 b/s
  160. Count of elements : 1412
  161. Stream size : 64.2 KiB (0%)
  162. Title : English
  163. Language : English
  164. Default : No
  165. Forced : No

  166. Text #10
  167. ID : 12
  168. Format : UTF-8
  169. Codec ID : S_TEXT/UTF8
  170. Codec ID/Info : UTF-8 Plain Text
  171. Duration : 1 h 29 min
  172. Bit rate : 92 b/s
  173. Count of elements : 1322
  174. Stream size : 60.8 KiB (0%)
  175. Title : Español (Latinoamérica)
  176. Language : Spanish
  177. Default : No
  178. Forced : No

  179. Text #11
  180. ID : 13
  181. Format : UTF-8
  182. Codec ID : S_TEXT/UTF8
  183. Codec ID/Info : UTF-8 Plain Text
  184. Duration : 1 h 29 min
  185. Bit rate : 92 b/s
  186. Count of elements : 1423
  187. Stream size : 60.8 KiB (0%)
  188. Title : Español (España)
  189. Language : Spanish
  190. Default : No
  191. Forced : No

  192. Text #12
  193. ID : 14
  194. Format : UTF-8
  195. Codec ID : S_TEXT/UTF8
  196. Codec ID/Info : UTF-8 Plain Text
  197. Duration : 1 h 29 min
  198. Bit rate : 86 b/s
  199. Count of elements : 1358
  200. Stream size : 57.0 KiB (0%)
  201. Title : eesti
  202. Language : Estonian
  203. Default : No
  204. Forced : No

  205. Text #13
  206. ID : 15
  207. Format : UTF-8
  208. Codec ID : S_TEXT/UTF8
  209. Codec ID/Info : UTF-8 Plain Text
  210. Duration : 1 h 29 min
  211. Bit rate : 89 b/s
  212. Count of elements : 1468
  213. Stream size : 58.9 KiB (0%)
  214. Title : Suomi
  215. Language : Finnish
  216. Default : No
  217. Forced : No

  218. Text #14
  219. ID : 16
  220. Format : UTF-8
  221. Codec ID : S_TEXT/UTF8
  222. Codec ID/Info : UTF-8 Plain Text
  223. Duration : 1 h 29 min
  224. Bit rate : 95 b/s
  225. Count of elements : 1468
  226. Stream size : 62.7 KiB (0%)
  227. Title : Français (Canada)
  228. Language : French
  229. Default : No
  230. Forced : No

  231. Text #15
  232. ID : 17
  233. Format : UTF-8
  234. Codec ID : S_TEXT/UTF8
  235. Codec ID/Info : UTF-8 Plain Text
  236. Duration : 1 h 29 min
  237. Bit rate : 95 b/s
  238. Count of elements : 1468
  239. Stream size : 62.7 KiB (0%)
  240. Title : Français (France)
  241. Language : French
  242. Default : No
  243. Forced : No

  244. Text #16
  245. ID : 18
  246. Format : UTF-8
  247. Codec ID : S_TEXT/UTF8
  248. Codec ID/Info : UTF-8 Plain Text
  249. Duration : 1 h 29 min
  250. Bit rate : 132 b/s
  251. Count of elements : 1480
  252. Stream size : 87.3 KiB (0%)
  253. Title : עברית
  254. Language : Hebrew
  255. Default : No
  256. Forced : No

  257. Text #17
  258. ID : 19
  259. Format : UTF-8
  260. Codec ID : S_TEXT/UTF8
  261. Codec ID/Info : UTF-8 Plain Text
  262. Duration : 1 h 29 min
  263. Bit rate : 259 b/s
  264. Count of elements : 1481
  265. Stream size : 171 KiB (0%)
  266. Title : हिन्दी
  267. Language : Hindi
  268. Default : No
  269. Forced : No

  270. Text #18
  271. ID : 20
  272. Format : UTF-8
  273. Codec ID : S_TEXT/UTF8
  274. Codec ID/Info : UTF-8 Plain Text
  275. Duration : 1 h 29 min
  276. Bit rate : 91 b/s
  277. Count of elements : 1445
  278. Stream size : 60.0 KiB (0%)
  279. Title : magyar
  280. Language : Hungarian
  281. Default : No
  282. Forced : No

  283. Text #19
  284. ID : 21
  285. Format : UTF-8
  286. Codec ID : S_TEXT/UTF8
  287. Codec ID/Info : UTF-8 Plain Text
  288. Duration : 1 h 29 min
  289. Bit rate : 96 b/s
  290. Count of elements : 1472
  291. Stream size : 63.7 KiB (0%)
  292. Title : Bahasa Indonesia
  293. Language : Indonesian
  294. Default : No
  295. Forced : No

  296. Text #20
  297. ID : 22
  298. Format : UTF-8
  299. Codec ID : S_TEXT/UTF8
  300. Codec ID/Info : UTF-8 Plain Text
  301. Duration : 1 h 29 min
  302. Bit rate : 89 b/s
  303. Count of elements : 1411
  304. Stream size : 59.0 KiB (0%)
  305. Title : Italiano
  306. Language : Italian
  307. Default : No
  308. Forced : No

  309. Text #21
  310. ID : 23
  311. Format : UTF-8
  312. Codec ID : S_TEXT/UTF8
  313. Codec ID/Info : UTF-8 Plain Text
  314. Duration : 1 h 29 min
  315. Bit rate : 88 b/s
  316. Count of elements : 1387
  317. Stream size : 58.5 KiB (0%)
  318. Title : 日本語
  319. Language : Japanese
  320. Default : No
  321. Forced : No

  322. Text #22
  323. ID : 24
  324. Format : UTF-8
  325. Codec ID : S_TEXT/UTF8
  326. Codec ID/Info : UTF-8 Plain Text
  327. Duration : 1 h 29 min
  328. Bit rate : 110 b/s
  329. Count of elements : 1482
  330. Stream size : 72.5 KiB (0%)
  331. Title : 한국어
  332. Language : Korean
  333. Default : No
  334. Forced : No

  335. Text #23
  336. ID : 25
  337. Format : UTF-8
  338. Codec ID : S_TEXT/UTF8
  339. Codec ID/Info : UTF-8 Plain Text
  340. Duration : 1 h 29 min
  341. Bit rate : 92 b/s
  342. Count of elements : 1474
  343. Stream size : 60.8 KiB (0%)
  344. Title : lietuvių
  345. Language : Lithuanian
  346. Default : No
  347. Forced : No

  348. Text #24
  349. ID : 26
  350. Format : UTF-8
  351. Codec ID : S_TEXT/UTF8
  352. Codec ID/Info : UTF-8 Plain Text
  353. Duration : 1 h 29 min
  354. Bit rate : 102 b/s
  355. Count of elements : 1463
  356. Stream size : 67.5 KiB (0%)
  357. Title : latviešu
  358. Language : Latvian
  359. Default : No
  360. Forced : No

  361. Text #25
  362. ID : 27
  363. Format : UTF-8
  364. Codec ID : S_TEXT/UTF8
  365. Codec ID/Info : UTF-8 Plain Text
  366. Duration : 1 h 29 min
  367. Bit rate : 94 b/s
  368. Count of elements : 1472
  369. Stream size : 62.0 KiB (0%)
  370. Title : Bahasa Melayu
  371. Language : Malay
  372. Default : No
  373. Forced : No

  374. Text #26
  375. ID : 28
  376. Format : UTF-8
  377. Codec ID : S_TEXT/UTF8
  378. Codec ID/Info : UTF-8 Plain Text
  379. Duration : 1 h 29 min
  380. Bit rate : 89 b/s
  381. Count of elements : 1257
  382. Stream size : 58.6 KiB (0%)
  383. Title : Nederlands
  384. Language : Dutch
  385. Default : No
  386. Forced : No

  387. Text #27
  388. ID : 29
  389. Format : UTF-8
  390. Codec ID : S_TEXT/UTF8
  391. Codec ID/Info : UTF-8 Plain Text
  392. Duration : 1 h 29 min
  393. Bit rate : 86 b/s
  394. Count of elements : 1294
  395. Stream size : 57.0 KiB (0%)
  396. Title : norsk
  397. Language : Norwegian
  398. Default : No
  399. Forced : No

  400. Text #28
  401. ID : 30
  402. Format : UTF-8
  403. Codec ID : S_TEXT/UTF8
  404. Codec ID/Info : UTF-8 Plain Text
  405. Duration : 1 h 29 min
  406. Bit rate : 92 b/s
  407. Count of elements : 1475
  408. Stream size : 61.0 KiB (0%)
  409. Title : polski
  410. Language : Polish
  411. Default : No
  412. Forced : No

  413. Text #29
  414. ID : 31
  415. Format : UTF-8
  416. Codec ID : S_TEXT/UTF8
  417. Codec ID/Info : UTF-8 Plain Text
  418. Duration : 1 h 29 min
  419. Bit rate : 91 b/s
  420. Count of elements : 1409
  421. Stream size : 59.9 KiB (0%)
  422. Title : Português (Brasil)
  423. Language : Portuguese
  424. Default : No
  425. Forced : No

  426. Text #30
  427. ID : 32
  428. Format : UTF-8
  429. Codec ID : S_TEXT/UTF8
  430. Codec ID/Info : UTF-8 Plain Text
  431. Duration : 1 h 29 min
  432. Bit rate : 101 b/s
  433. Count of elements : 1466
  434. Stream size : 66.8 KiB (0%)
  435. Title : Português
  436. Language : Portuguese
  437. Default : No
  438. Forced : No

  439. Text #31
  440. ID : 33
  441. Format : UTF-8
  442. Codec ID : S_TEXT/UTF8
  443. Codec ID/Info : UTF-8 Plain Text
  444. Duration : 1 h 29 min
  445. Bit rate : 158 b/s
  446. Count of elements : 1477
  447. Stream size : 104 KiB (0%)
  448. Title : Русский
  449. Language : Russian
  450. Default : No
  451. Forced : No

  452. Text #32
  453. ID : 34
  454. Format : UTF-8
  455. Codec ID : S_TEXT/UTF8
  456. Codec ID/Info : UTF-8 Plain Text
  457. Duration : 1 h 29 min
  458. Bit rate : 92 b/s
  459. Count of elements : 1459
  460. Stream size : 61.0 KiB (0%)
  461. Title : Slovenčina
  462. Language : Slovak
  463. Default : No
  464. Forced : No

  465. Text #33
  466. ID : 35
  467. Format : UTF-8
  468. Codec ID : S_TEXT/UTF8
  469. Codec ID/Info : UTF-8 Plain Text
  470. Duration : 1 h 29 min
  471. Bit rate : 78 b/s
  472. Count of elements : 1441
  473. Stream size : 51.7 KiB (0%)
  474. Title : slovenščina
  475. Language : Slovenian
  476. Default : No
  477. Forced : No

  478. Text #34
  479. ID : 36
  480. Format : UTF-8
  481. Codec ID : S_TEXT/UTF8
  482. Codec ID/Info : UTF-8 Plain Text
  483. Duration : 1 h 29 min
  484. Bit rate : 98 b/s
  485. Count of elements : 1358
  486. Stream size : 64.9 KiB (0%)
  487. Title : Svenska
  488. Language : Swedish
  489. Default : No
  490. Forced : No

  491. Text #35
  492. ID : 37
  493. Format : UTF-8
  494. Codec ID : S_TEXT/UTF8
  495. Codec ID/Info : UTF-8 Plain Text
  496. Duration : 1 h 29 min
  497. Bit rate : 325 b/s
  498. Count of elements : 1480
  499. Stream size : 214 KiB (0%)
  500. Title : தமிழ்
  501. Language : Tamil
  502. Default : No
  503. Forced : No

  504. Text #36
  505. ID : 38
  506. Format : UTF-8
  507. Codec ID : S_TEXT/UTF8
  508. Codec ID/Info : UTF-8 Plain Text
  509. Duration : 1 h 29 min
  510. Bit rate : 275 b/s
  511. Count of elements : 1480
  512. Stream size : 182 KiB (0%)
  513. Title : తెలుగు
  514. Language : Telugu
  515. Default : No
  516. Forced : No

  517. Text #37
  518. ID : 39
  519. Format : UTF-8
  520. Codec ID : S_TEXT/UTF8
  521. Codec ID/Info : UTF-8 Plain Text
  522. Duration : 1 h 29 min
  523. Bit rate : 259 b/s
  524. Count of elements : 1480
  525. Stream size : 171 KiB (0%)
  526. Title : ไทย
  527. Language : Thai
  528. Default : No
  529. Forced : No

  530. Text #38
  531. ID : 40
  532. Format : UTF-8
  533. Codec ID : S_TEXT/UTF8
  534. Codec ID/Info : UTF-8 Plain Text
  535. Duration : 1 h 29 min
  536. Bit rate : 98 b/s
  537. Count of elements : 1469
  538. Stream size : 64.6 KiB (0%)
  539. Title : Türkçe
  540. Language : Turkish
  541. Default : No
  542. Forced : No

  543. Text #39
  544. ID : 41
  545. Format : UTF-8
  546. Codec ID : S_TEXT/UTF8
  547. Codec ID/Info : UTF-8 Plain Text
  548. Duration : 1 h 29 min
  549. Bit rate : 155 b/s
  550. Count of elements : 1473
  551. Stream size : 102 KiB (0%)
  552. Title : українська
  553. Language : Ukrainian
  554. Default : No
  555. Forced : No

  556. Text #40
  557. ID : 42
  558. Format : UTF-8
  559. Codec ID : S_TEXT/UTF8
  560. Codec ID/Info : UTF-8 Plain Text
  561. Duration : 1 h 29 min
  562. Bit rate : 129 b/s
  563. Count of elements : 1474
  564. Stream size : 85.0 KiB (0%)
  565. Title : Tiếng Việt
  566. Language : Vietnamese
  567. Default : No
  568. Forced : No

  569. Text #41
  570. ID : 43
  571. Format : UTF-8
  572. Codec ID : S_TEXT/UTF8
  573. Codec ID/Info : UTF-8 Plain Text
  574. Duration : 1 h 29 min
  575. Bit rate : 84 b/s
  576. Count of elements : 1481
  577. Stream size : 55.6 KiB (0%)
  578. Title : 廣東話
  579. Language : Chinese
  580. Default : No
  581. Forced : No

  582. Text #42
  583. ID : 44
  584. Format : UTF-8
  585. Codec ID : S_TEXT/UTF8
  586. Codec ID/Info : UTF-8 Plain Text
  587. Duration : 1 h 28 min
  588. Bit rate : 107 b/s
  589. Count of elements : 1438
  590. Stream size : 69.4 KiB (0%)
  591. Title : English [SDH]
  592. Language : English
  593. Default : No
  594. Forced : No
复制代码

9.11.Inside.The.Presidents.War.Room.2021.2160p.WEB.h265-纪录片下载

9.11.Inside.The.Presidents.War.Room.2021.2160p.WEB.h265中文简体【13.70 GB】
[Hao4k]9.11.Inside.The.Presidents.War.Room.2021.2160p.WEB.h265-RUMOUR.torrent (17.97 KB, 售价: 3 个K币)

9.11.Inside.The.Presidents.War.Room.2021.REPACK.HDR.2160p.WEB.h265中文简体【16.00 GB】
[Hao4k]9.11.Inside.The.Presidents.War.Room.2021.REPACK.HDR.2160p.WEB.h265-RUMOUR.torrent (20.9 KB, 售价: 3 个K币)
分享到:  QQ好友和群QQ好友和群

网站提醒:

1、交流前,请认真阅读并遵守Hao4K影音《论坛总规则》,违者禁言扣除积分处理;同时欢迎大家共同监督,举报有奖;
2、所有信息发布必须严格遵守中华人民共和国所有法律法规及本地和行业相关规定,严禁发布带有任何违法或违规色彩信息;
3、如果内容对您有帮助,请点赞或评论表示感谢。如有不同观点欢迎讨论,但请尊重作者及其贡献内容,不欢迎任何理由的人身攻击,讨论事情勿针对人。

回复

使用道具 举报

全部回复28

2
bluenomad 发表于 2021-9-2 08:52:55

bluenomad 2

2021-9-2 08:52:55

9·11纪录片《总统作战室内》:Apple TV+七月八日宣布了一部全新的讲述9·11题材的特别纪录片,影片将还原2001年9月11日纽约世贸中心大楼和五角大楼遭到袭击后的几个小时内美国总统的确切时间线。这部纪录片将于今年9月在Apple TV+和BBC One首次亮相,以纪念深刻影响世界的9·11恐怖袭击事件20周年。
回复 支持 反对

使用道具 举报

3
ajian.lu 发表于 2021-9-2 08:56:44

ajian.lu 3

2021-9-2 08:56:44

谢谢分享!!
回复 支持 反对

使用道具 举报

4
dcgfc8 发表于 2021-9-2 09:31:22

dcgfc8 4

2021-9-2 09:31:22


9·11纪录片
回复 支持 反对

使用道具 举报

5
mazeg 发表于 2021-9-2 09:48:45

mazeg 5

2021-9-2 09:48:45

重要时刻记录岂容错过呢?谢谢!
回复 支持 反对

使用道具 举报

6
phjtcn. 发表于 2021-9-2 10:08:59

phjtcn. 6

2021-9-2 10:08:59

感谢楼主
回复 支持 反对

使用道具 举报

7
dvd752 发表于 2021-9-2 14:36:33

dvd752 7

2021-9-2 14:36:33

还带中文,方便了。谢谢啊!
回复 支持 反对

使用道具 举报

8
thp181200 发表于 2021-9-2 19:14:41

thp181200 8

2021-9-2 19:14:41

谢谢分享,好资源。
回复 支持 反对

使用道具 举报

9
skyboy124602 发表于 2021-9-2 20:11:27

skyboy124602 9

2021-9-2 20:11:27

谢谢楼主,正好需要
回复 支持 反对

使用道具 举报

10
iVictor 发表于 2021-9-2 22:25:28

iVictor 10

2021-9-2 22:25:28

竟然带原盘中文字幕,没想到啊
回复 支持 反对

使用道具 举报

11
yms2333 发表于 2021-9-2 22:45:47 Hao4K手机版

yms2333 11

2021-9-2 22:45:47

居然带简体中文,多谢
回复 支持 反对

使用道具 举报

12
mccliqiang 发表于 2021-9-2 23:21:48

mccliqiang 12

2021-9-2 23:21:48

911的片子估计好看些,下来看看
回复 支持 反对

使用道具 举报

13
cyberj 发表于 2021-9-3 09:49:41

cyberj 13

2021-9-3 09:49:41

谢谢楼主的分享。
回复 支持 反对

使用道具 举报

14
2019hk2125 发表于 2021-9-3 10:14:01

2019hk2125 14

2021-9-3 10:14:01

不知道怎么样啊!!
回复 支持 反对

使用道具 举报

15
nervbd 发表于 2021-9-3 12:14:43

nervbd 15

2021-9-3 12:14:43

第二个资源.REPACK是什么意思啊,为什么更大
回复 支持 反对

使用道具 举报

16
hutu2008 发表于 2021-9-3 14:17:36

hutu2008 16

2021-9-3 14:17:36

谢谢楼主的分享。
回复 支持 反对

使用道具 举报

17
街头棒士 发表于 2021-9-3 23:21:38

街头棒士 17

2021-9-3 23:21:38

一定要看看
回复 支持 反对

使用道具 举报

18
A13382222676 发表于 2021-9-4 06:36:17 Hao4K手机版

A13382222676 18

2021-9-4 06:36:17

有中文 不错
回复 支持 反对

使用道具 举报

   发表回复

您需要登录后才可以回帖 登录 | 立即注册

返回列表 本版积分规则

  • 在线客服

  • 返回顶部