微博 微信

Hao4K影音

电影频道
电影封面:
片  名: The.Conservation.Game
电影分类: 纪录片 
国  家: 美国 
年  代: 2021年
分 辨 率: 4K(3840x2160)
电影格式: MKV|REMUX 
画质标准: SDR 
音质编码: 其他AAC 
电影声道: 2.0声道 
帧数/FPS: 24.000 帧
电影语言: 英文原版 
资源大小: 10.36 GB
导  演: 迈克尔·韦伯
豆瓣评分: 7.7 分
中文字幕: -
剧情简介: 以美国圈养大型猫科动物的全国性辩论为背景,《保护游戏》讲述了俄亥俄州警察蒂姆·哈里森 (Tim Harrison) 的故事,他在一次异国情调的动物拍卖会上卧底时偶然发现了一个重磅炸弹。他开始怀疑美国顶级的电视名人环保主义者可能与异国情调的宠物贸易有秘密联系。接下来是一场高风险的猫捉老鼠游戏,充满谎言、欺骗和掩饰。随着他的调查深入了解大型猫科动物贸易的秘密世界,蒂姆和他的团队将他们的斗争带到了国会大厅,敦促立法者通过联邦立法,以结束对这些濒危动物的私人养殖和剥削。但是当反对来自一个意想不到的来源时,蒂姆被迫面对自己过去的恶魔,
The.Conservation.Game.2021.2160p.STAN.WEB-DL.x265.8bit.SDR.AAC2.0.x265电影信息
  1. Video
  2. ID : 1
  3. Format : HEVC
  4. Format/Info : High Efficiency Video Coding
  5. Format profile : Main@L5@High
  6. Codec ID : V_MPEGH/ISO/HEVC
  7. Duration : 1 h 50 min
  8. Bit rate : 13.3 Mb/s
  9. Width : 3 840 pixels
  10. Height : 1 620 pixels
  11. Display aspect ratio : 2.40:1
  12. Frame rate mode : Constant
  13. Frame rate : 24.000 FPS
  14. Color space : YUV
  15. Chroma subsampling : 4:2:0
  16. Bit depth : 8 bits
  17. Bits/(Pixel*Frame) : 0.089
  18. Stream size : 10.3 GiB (99%)
  19. Default : Yes
  20. Forced : No
  21. Color range : Limited
  22. Color primaries : BT.709
  23. Transfer characteristics : BT.709
  24. Matrix coefficients : BT.709

  25. Audio
  26. ID : 2
  27. Format : AAC LC
  28. Format/Info : Advanced Audio Codec Low Complexity
  29. Codec ID : A_AAC-2
  30. Duration : 1 h 50 min
  31. Bit rate : 126 kb/s
  32. Channel(s) : 2 channels
  33. Channel layout : L R
  34. Sampling rate : 44.1 kHz
  35. Frame rate : 43.066 FPS (1024 SPF)
  36. Compression mode : Lossy
  37. Stream size : 99.4 MiB (1%)
  38. Language : English
  39. Default : Yes
  40. Forced : No

  41. Text
  42. ID : 3
  43. Format : UTF-8
  44. Codec ID : S_TEXT/UTF8
  45. Codec ID/Info : UTF-8 Plain Text
  46. Duration : 1 h 49 min
  47. Bit rate : 108 b/s
  48. Count of elements : 2279
  49. Stream size : 86.8 KiB (0%)
  50. Title : SDH
  51. Language : English
  52. Default : No
  53. Forced : No
复制代码

The.Conservation.Game.2021.2160p.STAN.WEB-DL.x265.8bit.SDR.AAC2.0.x265电影下载

The.Conservation.Game.2021.2160p.STAN.WEB-DL.x265.8bit.SDR.AAC2.0.x265【10.36 GB】
[Hao4k]The.Conservation.Game.2021.2160p.STAN.WEB-DL.x265.8bit.SDR.AAC2.0.x265-TE.torrent (13.62 KB, 售价: 2 个K币)
回复

使用道具 举报

全部回复10

dengke118 发表于 2021-9-2 08:54:35

dengke118 2

2021-9-2 08:54:35

很好的纪录片。谢谢分享!
回复 支持 反对

使用道具 举报

gsxbp@163.com 发表于 2021-9-2 10:47:44

gsxbp@163.com 3

2021-9-2 10:47:44

很有现实意义的纪录片
回复 支持 反对

使用道具 举报

perfectemu 发表于 2021-9-2 10:51:55

perfectemu 4

2021-9-2 10:51:55

很好的纪录片,谢谢分享
回复 支持 反对

使用道具 举报

bbgrnnji 发表于 2021-9-2 17:03:54

bbgrnnji 5

2021-9-2 17:03:54

这个好像很不错
回复 支持 反对

使用道具 举报

不下火线 发表于 2021-9-4 17:03:28

不下火线 6

2021-9-4 17:03:28

看简介是不错的片子,多谢分享,多谢
回复 支持 反对

使用道具 举报

cafeman 发表于 2021-9-5 20:36:03

cafeman 7

2021-9-5 20:36:03

喜欢纪录片,很好。谢谢
回复 支持 反对

使用道具 举报

peter523917161 发表于 2021-9-7 11:01:30

peter523917161 8

2021-9-7 11:01:30

支持一下,非常不错
回复 支持 反对

使用道具 举报

catmanbaby 发表于 2021-9-7 20:24:42

catmanbaby 9

2021-9-7 20:24:42

有字幕吗。请发一下
回复 支持 反对

使用道具 举报

jphcm 发表于 2021-9-11 13:04:25

jphcm 10

2021-9-11 13:04:25


喜欢纪录片,很好
回复 支持 反对

使用道具 举报

dg226 发表于 3 天前

dg226 11

3 天前

谢谢分享精彩记录片
回复 支持 反对

使用道具 举报

   发表回复

您需要登录后才可以回帖 登录 | 立即注册

返回列表 本版积分规则

  • 在线客服

  • 返回顶部