微博 微信

Hao4K影音

电影频道
电影封面:
片  名: 屏住呼吸2 4k
电影分类: 恐怖 惊悚 
国  家: 美国 其他 
年  代: 2021年
分 辨 率: 4K(3840x2160)
电影格式: MKV|REMUX 
画质标准: HDR SDR 
音质编码: Dolby Digital Audio 
电影声道: 5.1声道 
帧数/FPS: 23.976 帧
电影语言: 英文原版 
资源大小: 10.21 GB
导  演: 罗多·赛亚格斯
豆瓣评分: 7.3 分
中文字幕: /thread-61394-1-1.html
剧情简介:  《屏住呼吸1》编剧罗多·赛亚格斯执导,并同前作导演费德·阿尔瓦雷兹一起写剧本,史蒂芬·朗、罗奇·威廉姆斯、斯蒂芬妮·阿西拉、鲍比·斯科菲尔德、亚当·扬等主演。
  故事发生在最初致命的入室抢劫之后的几年,眼盲的退伍老兵诺曼过着平静的生活,直到过去的罪恶开始找上他。
禁室杀戮2(港) / 暂时停止呼吸2(台) / 别呼吸2/屏住呼吸2 4k Dont.Breathe.2.2021.2160p.WEB-DL.x265.10bit.HDR.DD5.1电影信息
  1. Video
  2. ID : 1
  3. Format : HEVC
  4. Format/Info : High Efficiency Video Coding
  5. Format profile : Main 10@L5@High
  6. HDR format : SMPTE ST 2086, HDR10 compatible
  7. Codec ID : V_MPEGH/ISO/HEVC
  8. Duration : 1 h 38 min
  9. Bit rate : 14.5 Mb/s
  10. Width : 3 840 pixels
  11. Height : 1 580 pixels
  12. Display aspect ratio : 2.40:1
  13. Frame rate mode : Constant
  14. Frame rate : 23.976 FPS
  15. Color space : YUV
  16. Chroma subsampling : 4:2:0 (Type 2)
  17. Bit depth : 10 bits
  18. Bits/(Pixel*Frame) : 0.100
  19. Stream size : 9.94 GiB (97%)
  20. Default : Yes
  21. Forced : No
  22. Color range : Limited
  23. Color primaries : BT.2020
  24. Transfer characteristics : PQ
  25. Matrix coefficients : BT.2020 non-constant
  26. Mastering display color primaries : BT.2020
  27. Mastering display luminance : min: 0.0050 cd/m2, max: 1000 cd/m2
  28. Maximum Content Light Level : 1114 cd/m2
  29. Maximum Frame-Average Light Level : 376 cd/m2

  30. Audio
  31. ID : 2
  32. Format : AC-3
  33. Format/Info : Audio Coding 3
  34. Commercial name : Dolby Digital
  35. Codec ID : A_AC3
  36. Duration : 1 h 38 min
  37. Bit rate mode : Constant
  38. Bit rate : 384 kb/s
  39. Channel(s) : 6 channels
  40. Channel layout : L R C LFE Ls Rs
  41. Sampling rate : 48.0 kHz
  42. Frame rate : 31.250 FPS (1536 SPF)
  43. Compression mode : Lossy
  44. Stream size : 270 MiB (3%)
  45. Title : English
  46. Language : English
  47. Service kind : Complete Main
  48. Default : No
  49. Forced : No

  50. Text #1
  51. ID : 3
  52. Format : UTF-8
  53. Codec ID : S_TEXT/UTF8
  54. Codec ID/Info : UTF-8 Plain Text
  55. Duration : 1 h 26 min
  56. Bit rate : 14 b/s
  57. Count of elements : 487
  58. Stream size : 9.53 KiB (0%)
  59. Language : English
  60. Default : Yes
  61. Forced : No

  62. Text #2
  63. ID : 4
  64. Format : UTF-8
  65. Codec ID : S_TEXT/UTF8
  66. Codec ID/Info : UTF-8 Plain Text
  67. Duration : 1 h 35 min
  68. Bit rate : 23 b/s
  69. Count of elements : 925
  70. Stream size : 16.8 KiB (0%)
  71. Language : English
  72. Default : No
  73. Forced : No
复制代码

禁室杀戮2(港) / 暂时停止呼吸2(台) / 别呼吸2/屏住呼吸2 4k Dont.Breathe.2.2021.2160p.WEB-DL.x265.10bit.HDR.DD5.1电影下载

屏住呼吸2 4k Dont.Breathe.2.2021.2160p.WEB-DL.x265.10bit.HDR.DD5.1【4k HDR.2160p 10.21 GB】
[Hao4k]屏住呼吸2 4k Dont.Breathe.2.2021.2160p.WEB-DL.x265.10bit.HDR.DD5.1-NOGRP.torrent (13.41 KB, 售价: 3 个K币)
回复

使用道具 举报

全部回复43

abchen 发表于 2021-9-3 13:30:41

abchen 2

2021-9-3 13:30:41

占个沙发,多年前看过1,很喜欢这类型的电影,类似于夜魔,潜入式的惊悚电影。知道有续集,没想到先在这里看见发布了。感谢,收藏!
回复 支持 反对

使用道具 举报

windace 发表于 2021-9-3 14:33:58

windace 3

2021-9-3 14:33:58

这么快就出了啊
回复 支持 反对

使用道具 举报

dyczw 发表于 2021-9-3 14:48:41

dyczw 4

2021-9-3 14:48:41

看介绍就应该属于很恐怖的电影
回复 支持 反对

使用道具 举报

liaojiabin 发表于 2021-9-3 15:21:25

liaojiabin 5

2021-9-3 15:21:25

等中文字幕出了在下了
回复 支持 反对

使用道具 举报

kskchn 发表于 2021-9-3 15:24:46

kskchn 6

2021-9-3 15:24:46

看过1,当初看结局就觉得还要续集,居然还真的拍出来了
回复 支持 反对

使用道具 举报

adamshoo 发表于 2021-9-3 15:53:44

adamshoo 7

2021-9-3 15:53:44

这个不错,可以看看
回复 支持 反对

使用道具 举报

zac_zek 发表于 2021-9-3 16:14:51

zac_zek 8

2021-9-3 16:14:51

这个看过1,还是比较期待的
回复 支持 反对

使用道具 举报

df5222333 发表于 2021-9-3 16:59:11

df5222333 9

2021-9-3 16:59:11

新片不错!!!!
回复 支持 反对

使用道具 举报

V_ToON 发表于 2021-9-3 17:12:43

V_ToON 10

2021-9-3 17:12:43

求中文字幕
回复 支持 反对

使用道具 举报

亿万粉丝 发表于 2021-9-3 18:46:56

亿万粉丝 11

2021-9-3 18:46:56

出完整高清必须收藏。。。老头子太猛了。
回复 支持 反对

使用道具 举报

bbgrnnji 发表于 2021-9-3 22:40:59

bbgrnnji 12

2021-9-3 22:40:59

感觉这个片子不错
回复 支持 反对

使用道具 举报

knightgmy 发表于 2021-9-4 00:02:24

knightgmy 13

2021-9-4 00:02:24

想知道三个版本哪个最好
回复 支持 反对

使用道具 举报

Transcene 发表于 2021-9-4 00:15:02

Transcene 14

2021-9-4 00:15:02

看过第一部,算是比较反类型的片子,有新意
回复 支持 反对

使用道具 举报

cts0101 发表于 2021-9-4 09:21:41

cts0101 15

2021-9-4 09:21:41

这个大概很好的
回复 支持 反对

使用道具 举报

4096 发表于 2021-9-4 10:42:37 Hao4K手机版

4096 16

2021-9-4 10:42:37

吓人吗?
回复 支持 反对

使用道具 举报

jphcm 发表于 2021-9-4 12:41:38

jphcm 17

2021-9-4 12:41:38

一直在等第二部。
回复 支持 反对

使用道具 举报

墨龙9527 发表于 2021-9-4 12:51:16

墨龙9527 18

2021-9-4 12:51:16

这个不错,可以看看
回复 支持 反对

使用道具 举报

   发表回复

您需要登录后才可以回帖 登录 | 立即注册

返回列表 本版积分规则

  • 在线客服

  • 返回顶部