微博 微信

Hao4K影音

电影频道
电影封面:
片  名: 我们得做些什么4k
电影分类: 恐怖 
国  家: 美国 
年  代: 2021年
分 辨 率: 4K(3840x2160)
电影格式: MKV|REMUX 
画质标准: SDR 
音质编码: Dolby Digital Audio 
电影声道: 5.1声道 
帧数/FPS: 23.976 帧
电影语言: 英文原版 
资源大小: 8.40 GB
导  演: Sean King O\'Grady
豆瓣评分: 6.8 分
中文字幕: -
剧情简介: After Melissa and her family seek shelter from a storm, they become trapped. With no sign of rescue, hours turn to days and Melissa comes to realize that she and her girlfriend Amy might have something to do with the horrors that threaten to tear her family - and the entire world, apart.
我们得做些什么4k.We.Need.to.Do.Something.2021.2160p.WEB-DL.x265.10bit.SDR.DD5.1电影信息
  1. Video
  2. ID : 1
  3. Format : HEVC
  4. Format/Info : High Efficiency Video Coding
  5. Format profile : Main 10@L5@High
  6. Codec ID : V_MPEGH/ISO/HEVC
  7. Duration : 1 h 36 min
  8. Bit rate : 12.1 Mb/s
  9. Width : 3 576 pixels
  10. Height : 2 152 pixels
  11. Display aspect ratio : 5:3
  12. Frame rate mode : Constant
  13. Frame rate : 23.976 FPS
  14. Color space : YUV
  15. Chroma subsampling : 4:2:0
  16. Bit depth : 10 bits
  17. Bits/(Pixel*Frame) : 0.065
  18. Stream size : 8.14 GiB (97%)
  19. Default : Yes
  20. Forced : No
  21. Color range : Limited
  22. Color primaries : BT.709
  23. Transfer characteristics : BT.709
  24. Matrix coefficients : BT.709

  25. Audio
  26. ID : 2
  27. Format : AC-3
  28. Format/Info : Audio Coding 3
  29. Commercial name : Dolby Digital
  30. Codec ID : A_AC3
  31. Duration : 1 h 36 min
  32. Bit rate mode : Constant
  33. Bit rate : 384 kb/s
  34. Channel(s) : 6 channels
  35. Channel layout : L R C LFE Ls Rs
  36. Sampling rate : 48.0 kHz
  37. Frame rate : 31.250 FPS (1536 SPF)
  38. Compression mode : Lossy
  39. Stream size : 265 MiB (3%)
  40. Title : English
  41. Language : English
  42. Service kind : Complete Main
  43. Default : No
  44. Forced : No

  45. Text
  46. ID : 3
  47. Format : UTF-8
  48. Codec ID : S_TEXT/UTF8
  49. Codec ID/Info : UTF-8 Plain Text
  50. Duration : 1 h 30 min
  51. Bit rate : 40 b/s
  52. Count of elements : 886
  53. Stream size : 26.8 KiB (0%)
  54. Language : English
  55. Default : Yes
  56. Forced : No
复制代码


我们得做些什么4k.We.Need.to.Do.Something.2021.2160p.WEB-DL.x265.10bit.SDR.DD5.1电影下载
我们得做些什么4k.We.Need.to.Do.Something.2021.2160p.WEB-DL.x265.10bit.SDR.DD5.1【8.40 GB】
[Hao4k]我们得做些什么4k We.Need.to.Do.Something.2021.2160p.WEB-DL.x265.10bit.SDR.torrent (21.67 KB)
回复

使用道具 举报

全部回复9

longdejimoczh 发表于 2021-9-3 21:01:30

longdejimoczh 2

2021-9-3 21:01:30

有字幕吗
回复 支持 1 反对 0

使用道具 举报

bbgrnnji 发表于 2021-9-3 22:39:43

bbgrnnji 3

2021-9-3 22:39:43

在梅丽莎和她的家人躲避风暴后,他们被困住了。  在没有任何救援迹象的情况下,时间变成了几天,梅丽莎开始意识到她和她的女朋友艾米可能与威胁要撕裂她的家人和整个世界的恐怖事件有关。
回复 支持 1 反对 0

使用道具 举报

手抓他不香么 发表于 2021-9-4 14:36:28 Hao4K手机版

手抓他不香么 4

2021-9-4 14:36:28

求中文字幕
回复 支持 1 反对 0

使用道具 举报

sugarjie 发表于 2021-9-5 13:03:48

sugarjie 5

2021-9-5 13:03:48

看封面应该是惊悚片,支持一下!
回复 支持 反对

使用道具 举报

15380431519 发表于 2021-9-6 20:14:43

15380431519 6

2021-9-6 20:14:43

bbgrnnji 发表于 2021-9-3 22:39
在梅丽莎和她的家人躲避风暴后,他们被困住了。  在没有任何救援迹象的情况下,时间变成了几天,梅丽莎开始 ...

nice translation
回复 支持 反对

使用道具 举报

15380431519 发表于 2021-9-6 20:14:55

15380431519 7

2021-9-6 20:14:55

bbgrnnji 发表于 2021-9-3 22:39
在梅丽莎和她的家人躲避风暴后,他们被困住了。  在没有任何救援迹象的情况下,时间变成了几天,梅丽莎开始 ...

nice translation
回复 支持 反对

使用道具 举报

世爵39 发表于 2021-9-11 11:25:35

世爵39 8

2021-9-11 11:25:35

这影 片下载后为什么在电脑上播放正常???但在硬盘播放机播放时画面看不到???
回复 支持 反对

使用道具 举报

世爵39 发表于 2021-9-11 11:42:21

世爵39 9

2021-9-11 11:42:21

请教请教
回复 支持 反对

使用道具 举报

dg226 发表于 7 天前

dg226 10

7 天前

恐怖片先回复,有空下载!
回复 支持 反对

使用道具 举报

   发表回复

您需要登录后才可以回帖 登录 | 立即注册

返回列表 本版积分规则

  • 在线客服

  • 返回顶部