微博 微信

Hao4K影音

电视剧频道
电视剧封面:
电视剧名: 吸血鬼生活 第三季4k
年  代: 2021  
国  家: 美国
类  别: 恐怖 喜剧 奇幻 
语  言: 英语
字  幕: -
上映日期: 2021-09-02
文件格式: mkv    
视频效果: 4K(3840x2160)    
资源大小: 2.53 GB
片  长: -
导  演: 塔伊加·维迪提 / 杰森·威奈勒 / 杰姬·凡·比克
剧情简介: 本剧围绕四名共同“生活”上百年的吸血鬼展开,第二季中他们将继续努力在当代美国找寻自我方向,啼笑皆非地面对人类超级碗派对、网络暴民、新晋加官恋权的精力吸血鬼,以及所有自在游荡于纽约都会区的幽灵、女巫、招魂师、僵尸和潜行刺客。by:mingtian6.com
吸血鬼生活 第三季4k What.We.Do.in.the.Shadows.S03E02.2160p.WEB.H265美剧信息
  1. Video
  2. ID : 1
  3. Format : HEVC
  4. Format/Info : High Efficiency Video Coding
  5. Format profile : Main 10@L5.1@Main
  6. Codec ID : V_MPEGH/ISO/HEVC
  7. Duration : 24 min 21 s
  8. Bit rate : 15.1 Mb/s
  9. Width : 3 840 pixels
  10. Height : 2 160 pixels
  11. Display aspect ratio : 16:9
  12. Frame rate mode : Constant
  13. Frame rate : 23.976 (24000/1001) FPS
  14. Color space : YUV
  15. Chroma subsampling : 4:2:0
  16. Bit depth : 10 bits
  17. Bits/(Pixel*Frame) : 0.076
  18. Stream size : 2.56 GiB (96%)
  19. Default : Yes
  20. Forced : No

  21. Audio
  22. ID : 2
  23. Format : E-AC-3
  24. Format/Info : Enhanced AC-3
  25. Commercial name : Dolby Digital Plus
  26. Codec ID : A_EAC3
  27. Duration : 24 min 21 s
  28. Bit rate mode : Constant
  29. Bit rate : 256 kb/s
  30. Channel(s) : 6 channels
  31. Channel layout : L R C LFE Ls Rs
  32. Sampling rate : 48.0 kHz
  33. Frame rate : 31.250 FPS (1536 SPF)
  34. Compression mode : Lossy
  35. Delay relative to video : 24 ms
  36. Stream size : 44.6 MiB (2%)
  37. Language : English
  38. Service kind : Complete Main
  39. Default : Yes
  40. Forced : No

  41. Text
  42. ID : 3
  43. Format : UTF-8
  44. Codec ID : S_TEXT/UTF8
  45. Codec ID/Info : UTF-8 Plain Text
  46. Title : English
  47. Language : English
  48. Default : No
  49. Forced : No
复制代码

吸血鬼生活 第三季4k What.We.Do.in.the.Shadows.S03E02.2160p.WEB.H265美剧下载

吸血鬼生活 第三季4k What.We.Do.in.the.Shadows.S03E01.2160p.WEB.H265【2.66 GB】
[Hao4k]吸血鬼生活 第三季4k What.We.Do.in.the.Shadows.S03E01.2160p.WEB.H265-GLHF.torrent (27.33 KB)
回复

使用道具 举报

   发表回复

您需要登录后才可以回帖 登录 | 立即注册

返回列表 本版积分规则

  • 在线客服

  • 返回顶部