微博 微信

Hao4K影音

电影频道
电影封面:
片  名: Spin
电影分类: 喜剧 其他 
国  家: 美国 
年  代: 2021年
分 辨 率: 4K(3840x2160)
电影格式: MKV|REMUX 
画质标准: HDR SDR 
音质编码: Dolby Digital Plus Audio 
电影声道: 5.1声道 
帧数/FPS: 23.976 帧
电影语言: 英文原版 
资源大小: 13.48 GB
导  演: 曼贾里·马基贾尼
豆瓣评分: 5.8 分
中文字幕: -
剧情简介: 15 岁的雷亚·库马尔 (Rhea Kumar) 的冒险经历,她与多代关系紧密的家庭住在一起。
Spin.2021.2160p.WEB-DL.x265.8bit.SDR.DDP5.1-杜比视界电影信息
  1. Video
  2. ID : 1
  3. Format : HEVC
  4. Format/Info : High Efficiency Video Coding
  5. Format profile : Main@L5@High
  6. Codec ID : V_MPEGH/ISO/HEVC
  7. Duration : 1 h 33 min
  8. Bit rate : 19.9 Mb/s
  9. Width : 3 840 pixels
  10. Height : 2 160 pixels
  11. Display aspect ratio : 16:9
  12. Frame rate mode : Constant
  13. Frame rate : 23.976 (24000/1001) FPS
  14. Color space : YUV
  15. Chroma subsampling : 4:2:0
  16. Bit depth : 8 bits
  17. Bits/(Pixel*Frame) : 0.100
  18. Stream size : 13.1 GiB (97%)
  19. Writing library : x265 3.5:[Linux][GCC 7.5.0][64 bit] 8bit+10bit+12bit
  20. Encoding settings : cpuid=1111039 / frame-threads=1 / wpp / no-pmode / no-pme / no-psnr / no-ssim / log-level=2 / input-csp=1 / input-res=3840x2160 / interlace=0 / total-frames=0 / level-idc=50 / high-tier=1 / uhd-bd=0 / ref=2 / no-allow-non-conformance / repeat-headers / annexb / no-aud / no-hrd / info / hash=0 / no-temporal-layers / no-open-gop / min-keyint=48 / keyint=48 / gop-lookahead=0 / bframes=4 / b-adapt=1 / b-pyramid / bframe-bias=0 / rc-lookahead=48 / lookahead-slices=8 / scenecut=0 / hist-scenecut=0 / radl=0 / no-splice / no-intra-refresh / ctu=32 / min-cu-size=8 / no-rect / no-amp / max-tu-size=16 / tu-inter-depth=2 / tu-intra-depth=2 / limit-tu=0 / rdoq-level=1 / dynamic-rd=0.00 / no-ssim-rd / signhide / no-tskip / nr-intra=0 / nr-inter=0 / no-constrained-intra / no-strong-intra-smoothing / max-merge=3 / limit-refs=1 / no-limit-modes / me=1 / subme=2 / merange=44 / temporal-mvp / no-frame-dup / no-hme / weightp / no-weightb / no-analyze-src-pics / deblock=0:0 / no-sao / no-sao-non-deblock / rd=4 / selective-sao=0 / early-skip / rskip / no-fast-intra / no-tskip-fast / no-cu-lossless / b-intra / no-splitrd-skip / rdpenalty=1 / psy-rd=1.60 / psy-rdoq=5.00 / no-rd-refine / no-lossless / cbqpoffs=0 / crqpoffs=0 / rc=abr / bitrate=20000 / qcomp=0.75 / qpstep=4 / stats-write=0 / stats-read=0 / vbv-maxrate=24000 / vbv-bufsize=40000 / vbv-init=0.9 / ipratio=1.40 / pbratio=1.30 / aq-mode=3 / aq-strength=1.00 / no-cutree / zone-count=0 / no-strict-cbr / qg-size=32 / no-rc-grain / qpmax=69 / qpmin=0 / no-const-vbv / sar=1 / overscan=0 / videoformat=5 / range=0 / colorprim=1 / transfer=1 / colormatrix=1 / chromaloc=0 / display-window=0 / cll=0,0 / min-luma=0 / max-luma=255 / log2-max-poc-lsb=8 / vui-timing-info / vui-hrd-info / slices=1 / no-opt-qp-pps / no-opt-ref-list-length-pps / no-multi-pass-opt-rps / scenecut-bias=0.00 / hist-threshold=0.01 / no-opt-cu-delta-qp / no-aq-motion / no-hdr10 / no-hdr10-opt / no-dhdr10-opt / no-idr-recovery-sei / analysis-reuse-level=0 / analysis-save-reuse-level=0 / analysis-load-reuse-level=0 / scale-factor=0 / refine-intra=0 / refine-inter=0 / refine-mv=1 / refine-ctu-distortion=0 / no-limit-sao / ctu-info=0 / no-lowpass-dct / refine-analysis-type=0 / copy-pic=1 / max-ausize-factor=1.0 / no-dynamic-refine / no-single-sei / no-hevc-aq / no-svt / no-field / qp-adaptation-range=1.00 / no-scenecut-aware-qpconformance-window-offsets / right=0 / bottom=0
  21. Default : Yes
  22. Forced : No
  23. Color range : Limited
  24. Color primaries : BT.709
  25. Transfer characteristics : BT.709
  26. Matrix coefficients : BT.709

  27. Audio
  28. ID : 2
  29. Format : E-AC-3
  30. Format/Info : Enhanced AC-3
  31. Commercial name : Dolby Digital Plus
  32. Codec ID : A_EAC3
  33. Duration : 1 h 33 min
  34. Bit rate mode : Constant
  35. Bit rate : 640 kb/s
  36. Channel(s) : 6 channels
  37. Channel layout : L R C LFE Ls Rs
  38. Sampling rate : 48.0 kHz
  39. Frame rate : 31.250 FPS (1536 SPF)
  40. Compression mode : Lossy
  41. Stream size : 429 MiB (3%)
  42. Language : English
  43. Service kind : Complete Main
  44. Default : Yes
  45. Forced : No

  46. Text
  47. ID : 3
  48. Format : UTF-8
  49. Codec ID : S_TEXT/UTF8
  50. Codec ID/Info : UTF-8 Plain Text
  51. Duration : 1 h 33 min
  52. Bit rate : 77 b/s
  53. Count of elements : 1987
  54. Stream size : 53.5 KiB (0%)
  55. Language : English
  56. Default : No
  57. Forced : No
复制代码


Spin.2021.2160p.WEB-DL.x265.8bit.SDR.DDP5.1-杜比视界电影下载

Spin.2021.2160p.WEB-DL.x265.8bit.SDR.DDP5.1【4k 2160p  SDR 13.48 GB 】
[Hao4k]Spin.2021.2160p.WEB-DL.x265.8bit.SDR.DDP5.1-FLUX.torrent (17.47 KB)
回复

使用道具 举报

全部回复21

chenlihai 发表于 2021-9-4 21:54:18

chenlihai 2

2021-9-4 21:54:18

好看吗?
回复 支持 反对

使用道具 举报

wemcuhe 发表于 2021-9-5 07:20:34

wemcuhe 3

2021-9-5 07:20:34

我估计挺好看的,挺感谢楼主的。
回复 支持 反对

使用道具 举报

cnooc01 发表于 2021-9-5 08:36:02

cnooc01 4

2021-9-5 08:36:02

谢谢。。。。。。。。。。。。
回复 支持 反对

使用道具 举报

hnetv 发表于 2021-9-5 09:05:45

hnetv 5

2021-9-5 09:05:45

挺好的资源,感谢分享!
回复 支持 反对

使用道具 举报

sugarjie 发表于 2021-9-5 12:26:22

sugarjie 6

2021-9-5 12:26:22

为什么迪斯尼会拍印度题材的电影?不知道好不好看。
回复 支持 反对

使用道具 举报

老鼠响叮当燚燚 发表于 2021-9-5 17:47:24

老鼠响叮当燚燚 7

2021-9-5 17:47:24

谢谢楼主发片分享
回复 支持 反对

使用道具 举报

dengke118 发表于 2021-9-5 18:37:15

dengke118 8

2021-9-5 18:37:15

很好的电影,谢谢分享!!!
回复 支持 反对

使用道具 举报

星空无限李寅鹏 发表于 2021-9-5 23:26:45

星空无限李寅鹏 9

2021-9-5 23:26:45

挺好的资源,感谢分享!
回复 支持 反对

使用道具 举报

zhangwn1966 发表于 2021-9-6 00:59:13

zhangwn1966 10

2021-9-6 00:59:13

可能不能体现视界的精彩
回复 支持 反对

使用道具 举报

HSSWWH1969 发表于 2021-9-6 07:59:15

HSSWWH1969 11

2021-9-6 07:59:15

感谢分享!
回复 支持 反对

使用道具 举报

woca2307 发表于 2021-9-6 11:49:51

woca2307 12

2021-9-6 11:49:51

挺好的资源,感谢分享!
回复 支持 反对

使用道具 举报

novackang 发表于 2021-9-6 21:01:29

novackang 13

2021-9-6 21:01:29

不知道好看不好看,下载下来看看,印度题材很新奇
回复 支持 反对

使用道具 举报

A13382222676 发表于 2021-9-7 06:51:40 Hao4K手机版

A13382222676 14

2021-9-7 06:51:40

看看喜剧片 也不错
回复 支持 反对

使用道具 举报

novaccc 发表于 2021-9-7 15:17:14

novaccc 15

2021-9-7 15:17:14

谢谢分享
回复 支持 反对

使用道具 举报

su0807 发表于 2021-9-7 22:10:50

su0807 16

2021-9-7 22:10:50

新人报道,谢谢分享
回复 支持 反对

使用道具 举报

tianshi2999 发表于 2021-9-8 10:16:20

tianshi2999 17

2021-9-8 10:16:20

什么内容,看过的介绍一下
回复 支持 反对

使用道具 举报

lucky3628 发表于 2021-9-11 16:01:27

lucky3628 18

2021-9-11 16:01:27

感谢分享。
回复 支持 反对

使用道具 举报

   发表回复

您需要登录后才可以回帖 登录 | 立即注册

返回列表 本版积分规则

  • 在线客服

  • 返回顶部