微博 微信

Hao4K影音

电影频道
电影封面:
片  名: 我们,再一次4k
电影分类: 动画 其他 
国  家: 美国 
年  代: 2021年
分 辨 率: 4K(3840x2160)
电影格式: MKV|REMUX 
画质标准: HDR SDR 
音质编码: Dolby Digital Plus Audio 
电影声道: 5.1声道 
帧数/FPS: 23.976 帧
电影语言: 英文原版 
资源大小: 1.09 GB
导  演: Zach Parrish
豆瓣评分: 8.5 分
中文字幕: -
剧情简介: 迪士尼新一部动画短片曝光:《超能陆战队》动画总监Zach Parrish执导和编剧的《Us Again》。该片也公布剧照,美丽的夜晚。
  讲述一个老年男子Art和他有一颗年轻的心的妻子Dot的故事,他们在一个魔法般的晚上,通过舞蹈找回了自己一生的热情。这部时长约6分钟的短片没有台词,将通过舞蹈和funk和soul味道的配乐来讲述故事。片中舞步是与曾亮相《World of Dance》的知名夫妻舞者Keone和Mari Madrid合作,他们曾有一段热门舞蹈的设计是扮演一对老人。
  Parrish告诉《娱乐周刊》:该片灵感来自他自己的想法,在35岁左右他开始感到年纪上来,对身体素质有了限制,比如打篮球无法再像以前一样灵活,而他随后意识到:不要把时间花在追忆已经逝去的事物上,应该把握当下。同时,Parrish也从他的祖父母对“老去”的不同态度上找到了灵感。
  《Us Again》也是迪士尼动画本部在近5年来的首部院线短片,将贴片《寻龙传说》在3月5日北美上映,6月在Disney+上线。
我们,再一次4k Us.Again.2021.2160p.WEB-DL.x265.10bit.HDR.DDP5.1电影信息
  1. Video
  2. ID : 1
  3. Format : HEVC
  4. Format/Info : High Efficiency Video Coding
  5. Format profile : Main 10@L5@Main
  6. Codec ID : V_MPEGH/ISO/HEVC
  7. Duration : 6 min 52 s
  8. Bit rate : 22.4 Mb/s
  9. Width : 3 840 pixels
  10. Height : 2 160 pixels
  11. Display aspect ratio : 16:9
  12. Frame rate mode : Constant
  13. Frame rate : 23.976 (24000/1001) FPS
  14. Color space : YUV
  15. Chroma subsampling : 4:2:0
  16. Bit depth : 10 bits
  17. Bits/(Pixel*Frame) : 0.113
  18. Stream size : 1.08 GiB (99%)
  19. Writing library : x265 3.5:[Linux][GCC 7.5.0][64 bit] 10bit
  20. Encoding settings : cpuid=1111039 / frame-threads=1 / wpp / no-pmode / no-pme / no-psnr / no-ssim / log-level=2 / input-csp=1 / input-res=3840x2160 / interlace=0 / total-frames=0 / level-idc=50 / high-tier=0 / uhd-bd=0 / ref=3 / no-allow-non-conformance / repeat-headers / annexb / no-aud / no-hrd / info / hash=0 / no-temporal-layers / no-open-gop / min-keyint=48 / keyint=48 / gop-lookahead=0 / bframes=2 / b-adapt=0 / b-pyramid / bframe-bias=0 / rc-lookahead=48 / lookahead-slices=8 / scenecut=0 / hist-scenecut=0 / radl=0 / no-splice / no-intra-refresh / ctu=32 / min-cu-size=8 / no-rect / no-amp / max-tu-size=16 / tu-inter-depth=2 / tu-intra-depth=2 / limit-tu=0 / rdoq-level=1 / dynamic-rd=0.00 / no-ssim-rd / signhide / no-tskip / nr-intra=0 / nr-inter=0 / no-constrained-intra / no-strong-intra-smoothing / max-merge=3 / limit-refs=1 / no-limit-modes / me=1 / subme=2 / merange=44 / temporal-mvp / no-frame-dup / no-hme / weightp / no-weightb / no-analyze-src-pics / deblock=0:0 / no-sao / no-sao-non-deblock / rd=4 / selective-sao=0 / early-skip / rskip / no-fast-intra / no-tskip-fast / no-cu-lossless / b-intra / no-splitrd-skip / rdpenalty=1 / psy-rd=1.60 / psy-rdoq=5.00 / no-rd-refine / no-lossless / cbqpoffs=0 / crqpoffs=0 / rc=abr / bitrate=23000 / qcomp=0.75 / qpstep=4 / stats-write=0 / stats-read=0 / vbv-maxrate=25000 / vbv-bufsize=25000 / vbv-init=0.9 / ipratio=1.40 / pbratio=1.30 / aq-mode=3 / aq-strength=1.00 / no-cutree / zone-count=0 / no-strict-cbr / qg-size=32 / no-rc-grain / qpmax=69 / qpmin=0 / no-const-vbv / sar=1 / overscan=0 / videoformat=5 / range=0 / colorprim=9 / transfer=16 / colormatrix=9 / chromaloc=0 / display-window=0 / cll=0,0 / min-luma=0 / max-luma=1023 / log2-max-poc-lsb=8 / vui-timing-info / vui-hrd-info / slices=1 / no-opt-qp-pps / no-opt-ref-list-length-pps / no-multi-pass-opt-rps / scenecut-bias=0.00 / hist-threshold=0.01 / no-opt-cu-delta-qp / no-aq-motion / no-hdr10 / hdr10-opt / no-dhdr10-opt / no-idr-recovery-sei / analysis-reuse-level=0 / analysis-save-reuse-level=0 / analysis-load-reuse-level=0 / scale-factor=0 / refine-intra=0 / refine-inter=0 / refine-mv=1 / refine-ctu-distortion=0 / no-limit-sao / ctu-info=0 / no-lowpass-dct / refine-analysis-type=0 / copy-pic=1 / max-ausize-factor=1.0 / no-dynamic-refine / no-single-sei / no-hevc-aq / no-svt / no-field / qp-adaptation-range=1.00 / no-scenecut-aware-qpconformance-window-offsets / right=0 / bottom=0
  21. Default : Yes
  22. Forced : No
  23. Color range : Limited
  24. Color primaries : BT.2020
  25. Transfer characteristics : PQ
  26. Matrix coefficients : BT.2020 non-constant

  27. Audio
  28. ID : 2
  29. Format : E-AC-3
  30. Format/Info : Enhanced AC-3
  31. Commercial name : Dolby Digital Plus
  32. Codec ID : A_EAC3
  33. Duration : 6 min 52 s
  34. Bit rate mode : Constant
  35. Bit rate : 256 kb/s
  36. Channel(s) : 6 channels
  37. Channel layout : L R C LFE Ls Rs
  38. Sampling rate : 48.0 kHz
  39. Frame rate : 31.250 FPS (1536 SPF)
  40. Compression mode : Lossy
  41. Stream size : 12.6 MiB (1%)
  42. Language : English
  43. Service kind : Complete Main
  44. Default : Yes
  45. Forced : No

  46. Text #1
  47. ID : 3
  48. Format : UTF-8
  49. Codec ID : S_TEXT/UTF8
  50. Codec ID/Info : UTF-8 Plain Text
  51. Duration : 6 min 13 s
  52. Bit rate : 6 b/s
  53. Count of elements : 12
  54. Stream size : 326 Bytes (0%)
  55. Title : SDH
  56. Language : English
  57. Default : No
  58. Forced : No

  59. Text #2
  60. ID : 4
  61. Format : UTF-8
  62. Codec ID : S_TEXT/UTF8
  63. Codec ID/Info : UTF-8 Plain Text
  64. Duration : 6 min 13 s
  65. Bit rate : 8 b/s
  66. Count of elements : 13
  67. Stream size : 378 Bytes (0%)
  68. Language : German
  69. Default : No
  70. Forced : No

  71. Text #3
  72. ID : 5
  73. Format : UTF-8
  74. Codec ID : S_TEXT/UTF8
  75. Codec ID/Info : UTF-8 Plain Text
  76. Duration : 6 min 13 s
  77. Bit rate : 8 b/s
  78. Count of elements : 13
  79. Stream size : 415 Bytes (0%)
  80. Language : Spanish
  81. Default : No
  82. Forced : No

  83. Text #4
  84. ID : 6
  85. Format : UTF-8
  86. Codec ID : S_TEXT/UTF8
  87. Codec ID/Info : UTF-8 Plain Text
  88. Duration : 6 min 10 s
  89. Bit rate : 7 b/s
  90. Count of elements : 13
  91. Stream size : 347 Bytes (0%)
  92. Title : Français (Canadien) [CC]
  93. Language : French
  94. Default : No
  95. Forced : No

  96. Text #5
  97. ID : 7
  98. Format : UTF-8
  99. Codec ID : S_TEXT/UTF8
  100. Codec ID/Info : UTF-8 Plain Text
  101. Duration : 6 min 42 s
  102. Bit rate : 6 b/s
  103. Count of elements : 31
  104. Stream size : 341 Bytes (0%)
  105. Title : Français [CC]
  106. Language : French
  107. Default : No
  108. Forced : No

  109. Text #6
  110. ID : 8
  111. Format : UTF-8
  112. Codec ID : S_TEXT/UTF8
  113. Codec ID/Info : UTF-8 Plain Text
  114. Duration : 6 min 13 s
  115. Bit rate : 6 b/s
  116. Count of elements : 13
  117. Stream size : 313 Bytes (0%)
  118. Language : Portuguese
  119. Default : No
  120. Forced : No

  121. Menu
  122. 00:06:40.700 : Credits
复制代码

我们,再一次4k Us.Again.2021.2160p.WEB-DL.x265.10bit.HDR.DDP5.1电影下载

我们,再一次4k Us.Again.2021.2160p.WEB-DL.x265.10bit.HDR.DDP5.1【4k  HDR 2160p 1.09 GB】
[Hao4k]我们,再一次4k Us.Again.2021.2160p.WEB-DL.x265.10bit.HDR.DDP5.1-FLUX.torrent (11.52 KB, 售价: 2 个K币)

我们,再一次4k Us.Again.2021.2160p.WEB-DL.x265.8bit.SDR.DDP5.1【4k  SDR 2160p 979.13 MB】
[Hao4k]我们,再一次4k Us.Again.2021.2160p.WEB-DL.x265.8bit.SDR.DDP5.1-FLUX.torrent (19.75 KB, 售价: 2 个K币)
分享到:  QQ好友和群QQ好友和群

网站提醒:

1、交流前,请认真阅读并遵守Hao4K影音《论坛总规则》,违者禁言扣除积分处理;同时欢迎大家共同监督,举报有奖;
2、所有信息发布必须严格遵守中华人民共和国所有法律法规及本地和行业相关规定,严禁发布带有任何违法或违规色彩信息;
3、如果内容对您有帮助,请点赞或评论表示感谢。如有不同观点欢迎讨论,但请尊重作者及其贡献内容,不欢迎任何理由的人身攻击,讨论事情勿针对人。

回复

使用道具 举报

全部回复26

2
sugarjie 发表于 2021-9-5 12:22:11

sugarjie 2

2021-9-5 12:22:11

这部动画片评分这么高,看来值得一看。
回复 支持 反对

使用道具 举报

3
DEEPWATER 发表于 2021-9-5 13:06:08

DEEPWATER 3

2021-9-5 13:06:08

1个G?
回复 支持 反对

使用道具 举报

4
hzlzd 发表于 2021-9-5 13:14:58

hzlzd 4

2021-9-5 13:14:58

是短篇,看来是不会有国配或台配了,有了可以给小孩看。
回复 支持 反对

使用道具 举报

5
boss一级 发表于 2021-9-5 14:43:46

boss一级 5

2021-9-5 14:43:46

hzlzd 发表于 2021-9-5 13:14
是短篇,看来是不会有国配或台配了,有了可以给小孩看。

注意审题 这部时长约6分钟的短片没有台词
回复 支持 反对

使用道具 举报

6
119911119 发表于 2021-9-5 16:50:08 Hao4K手机版

119911119 6

2021-9-5 16:50:08

怎么获得k币啊
回复 支持 反对

使用道具 举报

7
wreatheskyjason 发表于 2021-9-5 18:00:48

wreatheskyjason 7

2021-9-5 18:00:48


怎么设置出售附件啊,论坛里根本没写
回复 支持 反对

使用道具 举报

8
wreatheskyjason 发表于 2021-9-5 18:01:01

wreatheskyjason 8

2021-9-5 18:01:01

66666666很不错啊
回复 支持 反对

使用道具 举报

9
aya_1126 发表于 2021-9-5 19:52:25

aya_1126 9

2021-9-5 19:52:25

这么短…看看,感谢分享~
回复 支持 反对

使用道具 举报

10
xuli_256 发表于 2021-9-5 22:23:11

xuli_256 10

2021-9-5 22:23:11

wreatheskyjason 发表于 2021-9-5 18:00
怎么设置出售附件啊,论坛里根本没写

是因为你的等级还不够,不能设置出售附件
回复 支持 反对

使用道具 举报

11
JerryQoQ 发表于 2021-9-6 09:12:27

JerryQoQ 11

2021-9-6 09:12:27

感谢楼主
回复 支持 反对

使用道具 举报

12
bluenortel 发表于 2021-9-6 10:16:42

bluenortel 12

2021-9-6 10:16:42

2个币下载,看看是否值得
回复 支持 反对

使用道具 举报

13
长尾巴的CEO 发表于 2021-9-6 10:25:36 Hao4K手机版

长尾巴的CEO 13

2021-9-6 10:25:36

wreatheskyjason 发表于 2021-9-5 18:00
怎么设置出售附件啊,论坛里根本没写

升级用户组
回复 支持 反对

使用道具 举报

14
a767521 发表于 2021-9-6 14:42:29

a767521 14

2021-9-6 14:42:29

下载看了原来是短片
回复 支持 反对

使用道具 举报

15
Star2004 发表于 2021-9-6 16:51:53

Star2004 15

2021-9-6 16:51:53

这也要币啊
免了得了
回复 支持 反对

使用道具 举报

16
hzlzd 发表于 2021-9-6 22:13:31

hzlzd 16

2021-9-6 22:13:31

boss一级 发表于 2021-9-5 14:43
注意审题 这部时长约6分钟的短片没有台词

兄台教育的是,我看文件信息有6种字幕,还以为有台词。
回复 支持 反对

使用道具 举报

17
justinfeng11 发表于 2021-9-7 08:53:57 Hao4K手机版

justinfeng11 17

2021-9-7 08:53:57

老美zzzq,这种短片也不放过......
回复 支持 反对

使用道具 举报

18
caitian 发表于 2021-9-7 09:04:19

caitian 18

2021-9-7 09:04:19

看简介不错,感谢分享!
回复 支持 反对

使用道具 举报

   发表回复

您需要登录后才可以回帖 登录 | 立即注册

返回列表 本版积分规则

  • 在线客服

  • 返回顶部