微博 微信

Hao4K影音

电视剧频道
电视剧封面:
电视剧名: 美国之锈4k
年  代: 2021  
国  家: 美国
类  别: 犯罪 剧情 
语  言: 英语
字  幕: 英文原版
上映日期: 2021-09-12
文件格式: mkv    
视频效果: 4K(3840x2160)    
资源大小: 6.69 GB
片  长: -
导  演: 沃尔特·塞勒斯
剧情简介:  Based on Philipp Meyer’s celebrated debut novel, American Rust is a compelling family drama and a timeless story of wanting a brighter future while being held prisoner by the past. The story of survival and transcendence is told through the eyes of complicated and compromised chief of police Del Harris of a Pennsylvania Rust Belt town full of good people making bad choices. When news of a murder rips through the town, Harris must decide what lengths he is willing to take to protect the son of the woman he loves. Starring Jeff Daniels and Maura Tierney. Watch the premiere on Sunday, September 12 at 10/9c on SHOWTIME.
铁锈 / Rust/美国之锈4k American.Rust.S01E01.2160p.SHO.WEB-DL.DDP5.1.DV.MKV.x265杜比视界美剧信息
  1. Video
  2. ID : 1
  3. Format : HEVC
  4. Format/Info : High Efficiency Video Coding
  5. Format profile : Main 10@L5@Main
  6. HDR format : Dolby Vision, Version 1.0, dvhe.05.06, BL+RPU
  7. Codec ID : V_MPEGH/ISO/HEVC
  8. Duration : 1 h 3 min
  9. Bit rate : 14.5 Mb/s
  10. Width : 3 840 pixels
  11. Height : 2 160 pixels
  12. Display aspect ratio : 16:9
  13. Frame rate mode : Constant
  14. Frame rate : 23.976 (24000/1001) FPS
  15. Color space : YUV
  16. Chroma subsampling : 4:2:0
  17. Bit depth : 10 bits
  18. Bits/(Pixel*Frame) : 0.073
  19. Stream size : 6.40 GiB (96%)
  20. Writing library : x265 3.4hy:[Linux][GCC 7.5.0][64 bit] 10bit
  21. Encoding settings : cpuid=1111039 / frame-threads=6 / no-wpp / no-pmode / no-pme / no-psnr / no-ssim / log-level=2 / input-csp=1 / input-res=3840x2160 / interlace=0 / total-frames=0 / level-idc=0 / high-tier=1 / uhd-bd=0 / ref=4 / no-allow-non-conformance / repeat-headers / annexb / aud / hrd / info / hash=0 / no-temporal-layers / no-open-gop / min-keyint=48 / keyint=48 / gop-lookahead=0 / bframes=4 / b-adapt=2 / b-pyramid / bframe-bias=0 / rc-lookahead=48 / lookahead-slices=4 / scenecut=0 / hist-scenecut=0 / radl=0 / no-splice / no-intra-refresh / ctu=64 / min-cu-size=8 / rect / no-amp / max-tu-size=32 / tu-inter-depth=1 / tu-intra-depth=1 / limit-tu=0 / rdoq-level=2 / dynamic-rd=0.00 / no-ssim-rd / signhide / no-tskip / nr-intra=100 / nr-inter=400 / no-constrained-intra / strong-intra-smoothing / max-merge=3 / limit-refs=3 / limit-modes / me=3 / subme=3 / merange=57 / temporal-mvp / no-frame-dup / no-hme / weightp / no-weightb / no-analyze-src-pics / deblock=0:0 / sao / no-sao-non-deblock / rd=4 / selective-sao=4 / no-early-skip / rskip / no-fast-intra / no-tskip-fast / no-cu-lossless / no-b-intra / no-splitrd-skip / rdpenalty=0 / psy-rd=0.00 / psy-rdoq=1.00 / no-rd-refine / no-lossless / cbqpoffs=0 / crqpoffs=3 / rc=abr / bitrate=15000 / qcomp=0.60 / qpstep=4 / stats-write=0 / stats-read=2 / cplxblur=20.0 / qblur=0.5 / vbv-maxrate=18000 / vbv-bufsize=12000 / vbv-init=0.6 / vbv-end=0.6 / vbv-end-fr-adj=0.0 / ipratio=1.40 / pbratio=1.30 / aq-mode=2 / aq-strength=1.00 / cutree / zone-count=0 / no-strict-cbr / qg-size=32 / no-rc-grain / qpmax=69 / qpmin=0 / no-const-vbv / sar=1 / overscan=0 / videoformat=5 / range=1 / colorprim=2 / transfer=2 / colormatrix=2 / chromaloc=0 / display-window=0 / cll=0,0 / min-luma=0 / max-luma=1023 / log2-max-poc-lsb=8 / vui-timing-info / vui-hrd-info / no-concatenation / slices=1 / no-opt-qp-pps / no-opt-ref-list-length-pps / no-multi-pass-opt-rps / scenecut-bias=0.05 / hist-threshold=0.01 / no-opt-cu-delta-qp / no-aq-motion / no-hdr10 / no-hdr10-opt / no-dhdr10-opt / no-idr-recovery-sei / analysis-reuse-level=0 / analysis-save-reuse-level=0 / analysis-load-reuse-level=0 / scale-factor=0 / refine-intra=0 / refine-inter=0 / refine-mv=1 / refine-ctu-distortion=0 / no-limit-sao / ctu-info=0 / no-lowpass-dct / refine-analysis-type=0 / copy-pic=1 / max-ausize-factor=1.0 / no-dynamic-refine / no-single-sei / no-hevc-aq / no-svt / no-field / qp-adaptation-range=1.00 / no-scenecut-aware-qpconformance-window-offsets / right=0 / bottom=0 / decoder-max-rate=0
  22. Default : Yes
  23. Forced : No
  24. Color range : Full

  25. Audio
  26. ID : 2
  27. Format : E-AC-3
  28. Format/Info : Enhanced AC-3
  29. Commercial name : Dolby Digital Plus
  30. Codec ID : A_EAC3
  31. Duration : 1 h 3 min
  32. Bit rate mode : Constant
  33. Bit rate : 640 kb/s
  34. Channel(s) : 6 channels
  35. Channel layout : L R C LFE Ls Rs
  36. Sampling rate : 48.0 kHz
  37. Frame rate : 31.250 FPS (1536 SPF)
  38. Compression mode : Lossy
  39. Delay relative to video : 18 ms
  40. Stream size : 292 MiB (4%)
  41. Language : English
  42. Service kind : Complete Main
  43. Default : Yes
  44. Forced : No

  45. Text #1
  46. ID : 3
  47. Format : UTF-8
  48. Codec ID : S_TEXT/UTF8
  49. Codec ID/Info : UTF-8 Plain Text
  50. Duration : 1 h 2 min
  51. Bit rate : 59 b/s
  52. Count of elements : 867
  53. Stream size : 27.2 KiB (0%)
  54. Language : English
  55. Default : No
  56. Forced : No

  57. Text #2
  58. ID : 4
  59. Format : UTF-8
  60. Codec ID : S_TEXT/UTF8
  61. Codec ID/Info : UTF-8 Plain Text
  62. Duration : 1 h 2 min
  63. Bit rate : 64 b/s
  64. Count of elements : 1000
  65. Stream size : 29.8 KiB (0%)
  66. Title : SDH
  67. Language : English
  68. Default : No
  69. Forced : No

  70. Menu
  71. 01:01:49.000 : Credits
复制代码


铁锈 / Rust/美国之锈4k American.Rust.S01E01.2160p.SHO.WEB-DL.DDP5.1.DV.MKV.x265杜比视界美剧下载

美国之锈4k American.Rust.S01E01.2160p.SHO.WEB-DL.DDP5.1.DV.MKV.x265杜比视界版本【4k 2160p 6.69 GB】
[Hao4k]美国之锈4k American.Rust.S01E01.2160p.SHO.WEB-DL.DDP5.1.DV.MKV.x265-NTb.torrent (17.36 KB)
回复

使用道具 举报

   发表回复

您需要登录后才可以回帖 登录 | 立即注册

返回列表 本版积分规则

  • 在线客服

  • 返回顶部