微博 微信

Hao4K影音

电视剧频道
电视剧封面:
电视剧名: 静水4k
年  代: 2020  
国  家: 美国
类  别: 动画 
语  言: 英语
字  幕: 英文原版
上映日期: 2020-12-04
文件格式: mkv    
视频效果: 4K(3840x2160)    
资源大小: 43.82 GB
片  长: 24 分钟
导  演: 伊娃·阿里尔·宾德 / Judah Mackey / Tucker Chandler / 詹姆士·谢
剧情简介:  Based on the Scholastic book series “Zen Shorts” by Jon J Muth, “Stillwater” is produced by Gaumont and Scholastic Entertainment and centers on siblings Karl, Addy and Michael, who are typical kids with typical kid challenges – meaning that sometimes even the smallest things can feel insurmountable. Fortunately for these three, they have Stillwater, a wise panda, as their next-door neighbor. Through his example, stories and gentle humor, Stillwater gives the children a deeper understanding of their feelings as well as tools that help them face their own day-to-day challenges. Stillwater also brings newfound fun and adventure for the three, opening their eyes to the quiet wonders of the world around them, and guiding them to their place within it. “Stillwater” is executive produced by Sidonie Dumas, Christophe Riandee, Nicolas Atlan, Terry Kalagian, Iole Lucchese, Caitlin Friedman, Jef Kaminsky and Rob Hoegee and features the voice talents of James Sie, Eva Binder, Tucker Chandler and Judah Mackey.
静水4k Stillwater.S01.2160p.ATVP.WEB-DL.DDP5.1.Atmos.DV.MKV.x265杜比视界美剧信息
  1. Video
  2. ID : 1
  3. Format : HEVC
  4. Format/Info : High Efficiency Video Coding
  5. Format profile : Main 10@L5@High
  6. HDR format : Dolby Vision, Version 1.0, dvhe.05.06, BL+RPU
  7. Codec ID : V_MPEGH/ISO/HEVC
  8. Duration : 24 min 18 s
  9. Bit rate : 23.5 Mb/s
  10. Width : 3 840 pixels
  11. Height : 2 160 pixels
  12. Display aspect ratio : 16:9
  13. Frame rate mode : Constant
  14. Frame rate : 23.976 (24000/1001) FPS
  15. Color space : YUV
  16. Chroma subsampling : 4:2:0
  17. Bit depth : 10 bits
  18. Bits/(Pixel*Frame) : 0.118
  19. Stream size : 4.00 GiB (97%)
  20. Default : Yes
  21. Forced : No

  22. Audio
  23. ID : 2
  24. Format : E-AC-3 JOC
  25. Format/Info : Enhanced AC-3 with Joint Object Coding
  26. Commercial name : Dolby Digital Plus with Dolby Atmos
  27. Codec ID : A_EAC3
  28. Duration : 24 min 18 s
  29. Bit rate mode : Constant
  30. Bit rate : 768 kb/s
  31. Channel(s) : 6 channels
  32. Channel layout : L R C LFE Ls Rs
  33. Sampling rate : 48.0 kHz
  34. Frame rate : 31.250 FPS (1536 SPF)
  35. Compression mode : Lossy
  36. Stream size : 134 MiB (3%)
  37. Language : English
  38. Service kind : Complete Main
  39. Default : Yes
  40. Forced : No
  41. Complexity index : 16
  42. Number of dynamic objects : 15
  43. Bed channel count : 1 channel
  44. Bed channel configuration : LFE

  45. Text #1
  46. ID : 3
  47. Format : UTF-8
  48. Codec ID : S_TEXT/UTF8
  49. Codec ID/Info : UTF-8 Plain Text
  50. Duration : 23 min 34 s
  51. Bit rate : 51 b/s
  52. Count of elements : 271
  53. Stream size : 8.97 KiB (0%)
  54. Language : English
  55. Default : No
  56. Forced : No

  57. Text #2
  58. ID : 4
  59. Format : UTF-8
  60. Codec ID : S_TEXT/UTF8
  61. Codec ID/Info : UTF-8 Plain Text
  62. Duration : 23 min 46 s
  63. Bit rate : 61 b/s
  64. Count of elements : 337
  65. Stream size : 10.7 KiB (0%)
  66. Title : SDH
  67. Language : English
  68. Default : No
  69. Forced : No
复制代码

静水4k Stillwater.S01.2160p.ATVP.WEB-DL.DDP5.1.Atmos.DV.MKV.x265杜比视界美剧下载

静水4k Stillwater.S01.2160p.ATVP.WEB-DL.DDP5.1.Atmos.DV.MKV.x265【43.82 GB】
[Hao4k]静水4k Stillwater.S01.2160p.ATVP.WEB-DL.DDP5.1.Atmos.DV.MKV.x265-FLUX.torrent (56.39 KB)
回复

使用道具 举报

全部回复2

wanglianxin 发表于 2021-9-10 00:07:15

wanglianxin 2

2021-9-10 00:07:15

时长是多少啊?
回复 支持 反对

使用道具 举报

bino118 发表于 2021-9-10 08:06:22

bino118 3

2021-9-10 08:06:22

24分18秒
回复 支持 反对

使用道具 举报

   发表回复

您需要登录后才可以回帖 登录 | 立即注册

返回列表 本版积分规则

  • 在线客服

  • 返回顶部