微博 微信

Hao4K影音

电视剧频道
电视剧封面:
电视剧名: 王冠4k
年  代: 2016  
国  家: 美国
类  别: 剧情 历史 
语  言: 英语
字  幕: 英文原版
上映日期: 2016-11-04
文件格式: mkv    
视频效果: 4K(3840x2160)    
资源大小: 63.54 GB
片  长: 50 分钟
导  演: 本·卡隆 / 史蒂芬·戴德利 / 菲利普·马丁 / 朱里安·杰拉德
剧情简介: 马特·史密斯和约翰·利斯高加盟Netflix剧集《王冠》(The Crown,暂译),二人分别饰演菲利普亲王和丘吉尔。剧集剧本由《女王》编剧彼得·摩根创作,首播集由《时时刻刻》导演史蒂芬·戴德利执导,讲述伊丽莎白二世与丘吉尔在二战后,重塑英伦的故事。之前确定由克莱尔·福伊出演伊丽莎白二世。
王权 / 王座/王冠4k The.Crown.S01.2160p.NF.WEB-DL.x265.10bit.HDR.DDP5.1美剧信息
  1. Video
  2. ID : 1
  3. Format : HEVC
  4. Format/Info : High Efficiency Video Coding
  5. Format profile : Main 10@L5@Main
  6. HDR format : Dolby Vision, Version 1.0, dvhe.08.07, BL+RPU, HDR10 compatible / SMPTE ST 2086, HDR10 compatible
  7. Codec ID : V_MPEGH/ISO/HEVC
  8. Duration : 1 h 1 min
  9. Bit rate : 14.9 Mb/s
  10. Width : 3 840 pixels
  11. Height : 2 160 pixels
  12. Display aspect ratio : 16:9
  13. Frame rate mode : Constant
  14. Frame rate : 25.000 FPS
  15. Color space : YUV
  16. Chroma subsampling : 4:2:0 (Type 2)
  17. Bit depth : 10 bits
  18. Bits/(Pixel*Frame) : 0.072
  19. Stream size : 6.44 GiB (94%)
  20. Default : Yes
  21. Forced : No
  22. Color range : Limited
  23. Color primaries : BT.2020
  24. Transfer characteristics : PQ
  25. Matrix coefficients : BT.2020 non-constant
  26. Mastering display color primaries : Display P3
  27. Mastering display luminance : min: 0.0001 cd/m2, max: 1000 cd/m2
  28. Maximum Content Light Level : 1062 cd/m2
  29. Maximum Frame-Average Light Level : 140 cd/m2

  30. Audio
  31. ID : 2
  32. Format : E-AC-3
  33. Format/Info : Enhanced AC-3
  34. Commercial name : Dolby Digital Plus
  35. Codec ID : A_EAC3
  36. Duration : 1 h 1 min
  37. Bit rate mode : Constant
  38. Bit rate : 640 kb/s
  39. Channel(s) : 6 channels
  40. Channel layout : L R C LFE Ls Rs
  41. Sampling rate : 48.0 kHz
  42. Frame rate : 31.250 FPS (1536 SPF)
  43. Compression mode : Lossy
  44. Stream size : 282 MiB (4%)
  45. Language : English
  46. Service kind : Complete Main
  47. Default : Yes
  48. Forced : No

  49. Text #1
  50. ID : 3
  51. Format : UTF-8
  52. Codec ID : S_TEXT/UTF8
  53. Codec ID/Info : UTF-8 Plain Text
  54. Language : English
  55. Default : No
  56. Forced : No

  57. Text #2
  58. ID : 4
  59. Format : UTF-8
  60. Codec ID : S_TEXT/UTF8
  61. Codec ID/Info : UTF-8 Plain Text
  62. Title : SDH
  63. Language : English
  64. Default : No
  65. Forced : No

  66. Text #3
  67. ID : 5
  68. Format : UTF-8
  69. Codec ID : S_TEXT/UTF8
  70. Codec ID/Info : UTF-8 Plain Text
  71. Language : Arabic
  72. Default : No
  73. Forced : No

  74. Text #4
  75. ID : 6
  76. Format : UTF-8
  77. Codec ID : S_TEXT/UTF8
  78. Codec ID/Info : UTF-8 Plain Text
  79. Title : Simplified
  80. Language : Chinese
  81. Default : No
  82. Forced : No

  83. Text #5
  84. ID : 7
  85. Format : UTF-8
  86. Codec ID : S_TEXT/UTF8
  87. Codec ID/Info : UTF-8 Plain Text
  88. Title : Traditional
  89. Language : Chinese
  90. Default : No
  91. Forced : No

  92. Text #6
  93. ID : 8
  94. Format : UTF-8
  95. Codec ID : S_TEXT/UTF8
  96. Codec ID/Info : UTF-8 Plain Text
  97. Language : Croatian
  98. Default : No
  99. Forced : No

  100. Text #7
  101. ID : 9
  102. Format : UTF-8
  103. Codec ID : S_TEXT/UTF8
  104. Codec ID/Info : UTF-8 Plain Text
  105. Language : Czech
  106. Default : No
  107. Forced : No

  108. Text #8
  109. ID : 10
  110. Format : UTF-8
  111. Codec ID : S_TEXT/UTF8
  112. Codec ID/Info : UTF-8 Plain Text
  113. Language : Danish
  114. Default : No
  115. Forced : No
复制代码

王权 / 王座/王冠4k The.Crown.S01.2160p.NF.WEB-DL.x265.10bit.HDR.DDP5.1美剧下载

王冠4k The.Crown.S01.2160p.NF.WEB-DL.x265.10bit.HDR.DDP5.1【63.54 GB】
[Hao4k]王冠4k The.Crown.S01.2160p.NF.WEB-DL.x265.10bit.HDR.DDP5.1-SiC.torrent (80.85 KB)
回复

使用道具 举报

全部回复2

358567082 发表于 2021-9-6 13:26:46

358567082 2

2021-9-6 13:26:46

终于更王冠了,已经在手机上看到四季了。心心念的剧,喜欢快节奏。谢谢分享
回复 支持 反对

使用道具 举报

wangzhi691126 发表于 2021-9-7 09:05:03

wangzhi691126 3

2021-9-7 09:05:03

谢谢分享
回复 支持 反对

使用道具 举报

   发表回复

您需要登录后才可以回帖 登录 | 立即注册

返回列表 本版积分规则

  • 在线客服

  • 返回顶部