微博 微信

Hao4K影音

电影频道
电影封面:
片  名: Blood.Sacrifice
电影分类: 其他 
国  家: 美国 
年  代: 2021年
分 辨 率: 4K(3840x2160)
电影格式: MKV|REMUX 
画质标准: SDR 
音质编码: 其他AAC 
电影声道: 2.0声道 
帧数/FPS: 23.976 帧
电影语言: 英文原版 
资源大小: 7.48 GB
导  演: 大卫·沙利文
豆瓣评分:
中文字幕: -
剧情简介: -
Blood.Sacrifice.2021.2160p.WEB-DL.x265.10bit.SDR.AAC2.0-4k电影信息
  1. Video
  2. ID : 1
  3. Format : HEVC
  4. Format/Info : High Efficiency Video Coding
  5. Format profile : Main 10@L5@High
  6. Codec ID : V_MPEGH/ISO/HEVC
  7. Duration : 1 h 27 min
  8. Bit rate : 12.0 Mb/s
  9. Width : 3 840 pixels
  10. Height : 2 160 pixels
  11. Display aspect ratio : 16:9
  12. Frame rate mode : Constant
  13. Frame rate : 23.976 FPS
  14. Color space : YUV
  15. Chroma subsampling : 4:2:0
  16. Bit depth : 10 bits
  17. Bits/(Pixel*Frame) : 0.060
  18. Stream size : 7.38 GiB (99%)
  19. Default : Yes
  20. Forced : No
  21. Color range : Limited
  22. Color primaries : BT.709
  23. Transfer characteristics : BT.709
  24. Matrix coefficients : BT.709

  25. Audio
  26. ID : 2
  27. Format : AAC LC
  28. Format/Info : Advanced Audio Codec Low Complexity
  29. Codec ID : A_AAC-2
  30. Duration : 1 h 27 min
  31. Bit rate : 157 kb/s
  32. Channel(s) : 2 channels
  33. Channel layout : L R
  34. Sampling rate : 48.0 kHz
  35. Frame rate : 46.875 FPS (1024 SPF)
  36. Compression mode : Lossy
  37. Stream size : 98.7 MiB (1%)
  38. Title : English
  39. Language : English
  40. Default : No
  41. Forced : No

  42. Text
  43. ID : 3
  44. Format : UTF-8
  45. Codec ID : S_TEXT/UTF8
  46. Codec ID/Info : UTF-8 Plain Text
  47. Duration : 1 h 25 min
  48. Bit rate : 78 b/s
  49. Count of elements : 1748
  50. Stream size : 49.5 KiB (0%)
  51. Language : English
  52. Default : Yes
  53. Forced : No
复制代码


Blood.Sacrifice.2021.2160p.WEB-DL.x265.10bit.SDR.AAC2.0-4k电影下载

Blood.Sacrifice.2021.2160p.WEB-DL.x265.10bit.SDR.AAC2.0【7.48 GB】
[Hao4k]Blood.Sacrifice.2021.2160p.WEB-DL.x265.10bit.SDR.AAC2.0-NOGRP.torrent (19.33 KB)
回复

使用道具 举报

全部回复7

4096 发表于 2021-9-7 12:38:37 Hao4K手机版

4096 2

2021-9-7 12:38:37

来个沙发
回复 支持 反对

使用道具 举报

cnclg 发表于 2021-9-7 18:56:40

cnclg 3

2021-9-7 18:56:40

感谢分享,有点复古的感觉呢
回复 支持 反对

使用道具 举报

su0807 发表于 2021-9-7 21:55:04

su0807 4

2021-9-7 21:55:04

这是什么类型的片子,谢谢分享!!!
回复 支持 反对

使用道具 举报

qqh4636931 发表于 2021-9-7 22:04:44

qqh4636931 5

2021-9-7 22:04:44

黑人泛滥片!!!!
回复 支持 1 反对 0

使用道具 举报

kaden 发表于 2021-9-8 16:28:44

kaden 6

2021-9-8 16:28:44

什么东西,介绍都没
回复 支持 反对

使用道具 举报

yaow2006 发表于 2021-9-8 20:55:19

yaow2006 7

2021-9-8 20:55:19

关于黑命贵的片子是吗
回复 支持 反对

使用道具 举报

无聊的老鹰 发表于 2021-9-9 17:43:01 Hao4K手机版

无聊的老鹰 8

2021-9-9 17:43:01

好看吗?
回复 支持 反对

使用道具 举报

   发表回复

您需要登录后才可以回帖 登录 | 立即注册

返回列表 本版积分规则

  • 在线客服

  • 返回顶部