微博 微信

Hao4K影音

电视剧频道
电视剧封面:
电视剧名: 漫漫长路4k
年  代: 00年代  
国  家: 美国
类  别: 冒险 纪录片 
语  言: 英语
字  幕: 英文原版
上映日期: 2004-10-18
文件格式: mkv    
视频效果: 4K(3840x2160)    
资源大小: 77.24 GB
片  长: -
导  演: David Alexanian / Russ Malkin
剧情简介: 曾主演电影《星际大战》、《红磨坊》的英国男艺人伊旺麦奎格(Ewan Mcgregor)和他的好友 查理布尔曼Charley Boorman 骑着BMW重型机车完成环游世界的壮举,他们从伦敦出发,穿越欧洲、俄罗斯、西伯利亚、哈萨克、蒙古、阿拉斯加,最后回到终点纽约,这趟全程达32000公里的重机长征,共费时115天。
漫漫长路4k Long.Way.Round.S01.2160p.ATVP.WEB-DL.x265.10bit.HDR.DD5.1-4k纪录片美剧信息
  1. Video
  2. ID : 1
  3. Format : HEVC
  4. Format/Info : High Efficiency Video Coding
  5. Format profile : Main 10@L5@High
  6. HDR format : SMPTE ST 2086, HDR10 compatible
  7. Codec ID : V_MPEGH/ISO/HEVC
  8. Duration : 45 min 40 s
  9. Bit rate : 24.0 Mb/s
  10. Width : 3 840 pixels
  11. Height : 2 160 pixels
  12. Display aspect ratio : 16:9
  13. Frame rate mode : Constant
  14. Frame rate : 23.976 FPS
  15. Color space : YUV
  16. Chroma subsampling : 4:2:0 (Type 2)
  17. Bit depth : 10 bits
  18. Bits/(Pixel*Frame) : 0.120
  19. Stream size : 7.64 GiB (96%)
  20. Writing library : HEVC Coding
  21. Language : English
  22. Default : Yes
  23. Forced : No
  24. Color range : Limited
  25. Color primaries : BT.2020
  26. Transfer characteristics : PQ
  27. Matrix coefficients : BT.2020 non-constant
  28. Mastering display color primaries : Display P3
  29. Mastering display luminance : min: 0.0001 cd/m2, max: 1000 cd/m2
  30. Maximum Content Light Level : 233 cd/m2
  31. Maximum Frame-Average Light Level : 91 cd/m2
  32. VENDOR_ID : [0][0][0][0]

  33. Audio
  34. ID : 2
  35. Format : AC-3
  36. Format/Info : Audio Coding 3
  37. Commercial name : Dolby Digital
  38. Codec ID : A_AC3
  39. Duration : 45 min 40 s
  40. Bit rate mode : Constant
  41. Bit rate : 384 kb/s
  42. Channel(s) : 6 channels
  43. Channel layout : L R C LFE Ls Rs
  44. Sampling rate : 48.0 kHz
  45. Frame rate : 31.250 FPS (1536 SPF)
  46. Bit depth : 32 bits
  47. Compression mode : Lossy
  48. Stream size : 125 MiB (2%)
  49. Service kind : Complete Main
  50. Default : Yes
  51. Forced : No
  52. VENDOR_ID : [0][0][0][0]

  53. Text #1
  54. ID : 3
  55. Format : UTF-8
  56. Codec ID : S_TEXT/UTF8
  57. Codec ID/Info : UTF-8 Plain Text
  58. Duration : 45 min 8 s
  59. Title : English
  60. Language : English
  61. Default : Yes
  62. Forced : No

  63. Text #2
  64. ID : 4
  65. Format : UTF-8
  66. Codec ID : S_TEXT/UTF8
  67. Codec ID/Info : UTF-8 Plain Text
  68. Duration : 45 min 36 s
  69. Title : العربية
  70. Language : Arabic
  71. Default : No
  72. Forced : No

  73. Text #3
  74. ID : 5
  75. Format : UTF-8
  76. Codec ID : S_TEXT/UTF8
  77. Codec ID/Info : UTF-8 Plain Text
  78. Duration : 45 min 36 s
  79. Title : български
  80. Language : Bulgarian
  81. Default : No
  82. Forced : No

  83. Text #4
  84. ID : 6
  85. Format : UTF-8
  86. Codec ID : S_TEXT/UTF8
  87. Codec ID/Info : UTF-8 Plain Text
  88. Duration : 45 min 36 s
  89. Title : 中文(简体)
  90. Language : cmn
  91. Default : No
  92. Forced : No

  93. Text #5
  94. ID : 7
  95. Format : UTF-8
  96. Codec ID : S_TEXT/UTF8
  97. Codec ID/Info : UTF-8 Plain Text
  98. Duration : 45 min 36 s
  99. Title : 中文(繁體)
  100. Language : cmn
  101. Default : No
  102. Forced : No
复制代码

漫漫长路4k Long.Way.Round.S01.2160p.ATVP.WEB-DL.x265.10bit.HDR.DD5.1-4k纪录片美剧下载

漫漫长路4k Long.Way.Round.S01.2160p.ATVP.WEB-DL.x265.10bit.HDR.DD5.1【77.24 GB】中文简体
[Hao4k]漫漫长路4k Long.Way.Round.S01.2160p.ATVP.WEB-DL.x265.10bit.HDR.DD5.1-NTb.torrent (98.06 KB)
回复

使用道具 举报

全部回复3

cherokee 发表于 2021-9-8 23:12:17

cherokee 2

2021-9-8 23:12:17

等了多年的片子,有点激动
回复 支持 反对

使用道具 举报

农夫舅舅 发表于 2021-9-9 04:34:17 Hao4K手机版

农夫舅舅 3

2021-9-9 04:34:17

这个可以有
回复 支持 反对

使用道具 举报

cjr_jnu 发表于 2021-9-16 17:12:40

cjr_jnu 4

2021-9-16 17:12:40

这个怎么下载不了?
回复 支持 反对

使用道具 举报

   发表回复

您需要登录后才可以回帖 登录 | 立即注册

返回列表 本版积分规则

  • 在线客服

  • 返回顶部