微博 微信

Hao4K影音

电影频道
电影封面:
片  名: 偷天换日4k
电影分类: 动作 犯罪 惊悚 
国  家: 美国 
年  代: 00年代
分 辨 率: 4K(3840x2160)
电影格式: mp4 MKV|REMUX 
画质标准: HDR Dolby Vision 
音质编码: Dolby Digital Plus Audio 
电影声道: 5.1声道 
帧数/FPS: 23.976 帧
电影语言: 英文原版 
资源大小: 19.40 GB
导  演: F·加里·格雷
豆瓣评分: 7.6 分
中文字幕: /thread-61574-1-1.html
剧情简介: 查理(马克·沃尔伯格 Mark Wahlberg 饰)本来可以拿着抢劫回来的那箱黄金安度余生,同伙史蒂夫(爱德华·诺顿 Edward Norton饰)的出卖却让他的阵脚大乱。史蒂夫不但独吞了巨款逃亡洛杉矶,还害得查理尝尽牢狱之苦。
  现在从监狱出来的查理,正踌躇满志要找史蒂夫算上一帐。他网罗了盗窃高手——美女斯黛拉(查理兹·塞隆 Charlize Theron 饰)专门负责开保险柜,而他和其他搭档,则全力设计出一条通畅的大道,供迅速逃跑之用。斯黛拉前往引史蒂夫上勾,却被老奸巨猾的史蒂夫识破。查理则飞速的破坏了洛杉矶的红绿灯系统,洛杉矶发生了蔚为壮观的大塞车,然而,令他们意外的是,逃脱没有如此简单——史蒂夫没有驱车追赶,他用了一辆直升飞机,在他们上空穷追不舍。洛杉矶的地下隧道和街头小巷,陷入了一片混战。
天罗盗网(港) / 意大利任务 / 爆窃意大利/偷天换日4k The.Italian.Job.2003.2160p.WEB.DL.DD5.1.DV.MP4.x265-4k杜比视界电影信息
  1. Video
  2. ID : 1
  3. Format : HEVC
  4. Format/Info : High Efficiency Video Coding
  5. Format profile : Main 10@L5@High
  6. HDR format : Dolby Vision, Version 1.0, dvhe.05.06, BL+RPU
  7. Codec ID : dvhe
  8. Codec ID/Info : High Efficiency Video Coding with Dolby Vision
  9. Duration : 1 h 50 min
  10. Bit rate : 24.7 Mb/s
  11. Width : 3 840 pixels
  12. Height : 1 640 pixels
  13. Original height : 1 634 pixels
  14. Display aspect ratio : 2.35:1
  15. Original display aspect ratio : 2.35:1
  16. Frame rate mode : Constant
  17. Frame rate : 23.976 (24000/1001) FPS
  18. Color space : YUV
  19. Chroma subsampling : 4:2:0
  20. Bit depth : 10 bits
  21. Bits/(Pixel*Frame) : 0.164
  22. Stream size : 19.1 GiB (98%)
  23. Default : Yes
  24. Alternate group : 1
  25. Encoded date : UTC 2021-09-08 13:11:54
  26. Tagged date : UTC 2021-09-08 16:59:08
  27. Codec configuration box : hvcC+dvcC

  28. Audio
  29. ID : 2
  30. Format : AC-3
  31. Format/Info : Audio Coding 3
  32. Commercial name : Dolby Digital
  33. Codec ID : ac-3
  34. Duration : 1 h 50 min
  35. Bit rate mode : Constant
  36. Bit rate : 384 kb/s
  37. Maximum bit rate : 406 kb/s
  38. Channel(s) : 6 channels
  39. Channel layout : L R C LFE Ls Rs
  40. Sampling rate : 48.0 kHz
  41. Frame rate : 31.250 FPS (1536 SPF)
  42. Compression mode : Lossy
  43. Stream size : 304 MiB (2%)
  44. Title : English (US)
  45. Language : English
  46. Service kind : Complete Main
  47. Encoded date : UTC 2021-09-08 13:09:33
  48. Tagged date : UTC 2021-09-08 16:59:08

  49. Text #1
  50. ID : 3
  51. Format : Timed Text
  52. Codec ID : tx3g
  53. Duration : 1 h 46 min
  54. Bit rate mode : Variable
  55. Bit rate : 64 b/s
  56. Stream size : 49.9 KiB (0%)
  57. Title : English
  58. Language : English
  59. Forced : No
  60. Encoded date : UTC 2021-09-08 13:14:07
  61. Tagged date : UTC 2021-09-08 16:59:08

  62. Text #2
  63. ID : 4
  64. Format : Timed Text
  65. Codec ID : tx3g
  66. Duration : 1 h 50 min
  67. Bit rate mode : Variable
  68. Bit rate : 75 b/s
  69. Stream size : 60.6 KiB (0%)
  70. Title : SDH
  71. Language : English
  72. Forced : No
  73. Encoded date : UTC 2021-09-08 13:14:08
  74. Tagged date : UTC 2021-09-08 16:59:08

  75. Menu
  76. 00:00:00.000 : Chapter 1
  77. 00:02:25.270 : Chapter 2
  78. 00:05:25.867 : Chapter 3
  79. 00:11:25.143 : Chapter 4
  80. 00:16:47.506 : Chapter 5
  81. 00:23:58.980 : Chapter 6
  82. 00:30:02.259 : Chapter 7
  83. 00:40:28.719 : Chapter 8
  84. 00:54:57.338 : Chapter 9
  85. 01:01:32.858 : Chapter 10
  86. 01:08:06.710 : Chapter 11
  87. 01:16:48.858 : Chapter 12
  88. 01:23:26.131 : Chapter 13
  89. 01:28:34.855 : Chapter 14
  90. 01:34:53.568 : Chapter 15
  91. 01:40:15.806 : Chapter 16
复制代码


天罗盗网(港) / 意大利任务 / 爆窃意大利/偷天换日4k The.Italian.Job.2003.2160p.WEB.DL.DD5.1.DV.MP4.x265-4k杜比视界电影下载

为了避免不能正常播放(播放画面发绿,发蓝)请不支持DV 杜比视界的设备请不要下载杜比视界版本

偷天换日4k The.Italian.Job.2003.2160p.WEB.DL.DD5.1.DV.MP4.x265【4k 杜比视界 19.40GB】
[Hao4k]偷天换日4k The.Italian.Job.2003.2160p.WEB-DL.DD5.1.DV.MP4.x265-TEPES.torrent (24.89 KB, 售价: 2 个K币)

偷天换日4k The.Italian.Job.2003.2160p.WEB-DL.x265.10bit.HDR.DTS-HD.MA.5.1【4k HDR 14.66 GB】
[Hao4k]偷天换日4k The.Italian.Job.2003.2160p.WEB-DL.x265.10bit.HDR.DTS-HD.MA.5.1.torrent (19 KB, 售价: 2 个K币)

偷天换日4k The.Italian.Job.2003.2160p.WEB-DL.x265.10bit.HDR.DTS-HD.MA.5.1【4k HDR 14.66 GB】
迅雷云不限速下载链接:https://pan.xunlei.com/s/VMj920bO4nKu_H1euewZJeoyA1
提取码: 提取码.txt (144 Bytes, 售价: 2 个K币)

偷天换日4k电影中文字幕下载 感谢K友@苏默金武分享的字幕
https://www.hao4k.cn/thread-61574-1-1.html

偷天换日4k电影SUP中文特效中文字幕下载 感谢K友@llppcn分享的字幕
https://www.hao4k.cn/thread-61598-1-1.html
分享到:  QQ好友和群QQ好友和群

网站提醒:

1、交流前,请认真阅读并遵守Hao4K影音《论坛总规则》,违者禁言扣除积分处理;同时欢迎大家共同监督,举报有奖;
2、所有信息发布必须严格遵守中华人民共和国所有法律法规及本地和行业相关规定,严禁发布带有任何违法或违规色彩信息;
3、如果内容对您有帮助,请点赞或评论表示感谢。如有不同观点欢迎讨论,但请尊重作者及其贡献内容,不欢迎任何理由的人身攻击,讨论事情勿针对人。

回复

使用道具 举报

全部回复63

2
shcnbzjz 发表于 2021-9-9 07:30:30

shcnbzjz 2

2021-9-9 07:30:30

就是这部片子,mini车子名声大振
回复 支持 反对

使用道具 举报

3
bbgrnnji 发表于 2021-9-9 08:20:18

bbgrnnji 3

2021-9-9 08:20:18

这部片子不错
回复 支持 反对

使用道具 举报

4
les5332295 发表于 2021-9-9 08:48:46

les5332295 4

2021-9-9 08:48:46

这部电影看 贝隆和mini,都很美。
回复 支持 反对

使用道具 举报

5
801208 发表于 2021-9-9 08:50:20

801208 5

2021-9-9 08:50:20

收藏了,谢谢楼主
回复 支持 反对

使用道具 举报

6
zyf007 发表于 2021-9-9 09:28:39

zyf007 6

2021-9-9 09:28:39

真的不错
回复 支持 反对

使用道具 举报

7
zyf007 发表于 2021-9-9 09:28:56

zyf007 7

2021-9-9 09:28:56

谢谢楼主
回复 支持 反对

使用道具 举报

8
pblppp 发表于 2021-9-9 09:29:03

pblppp 8

2021-9-9 09:29:03

谢谢楼主辛苦了!
回复 支持 反对

使用道具 举报

9
hao59 发表于 2021-9-9 09:33:40

hao59 9

2021-9-9 09:33:40


这部电影看 贝隆和mini,都很美。
回复 支持 反对

使用道具 举报

10
dengke118 发表于 2021-9-9 09:37:19

dengke118 10

2021-9-9 09:37:19

非常好的影片,谢谢分享!
回复 支持 反对

使用道具 举报

11
tomcatf 发表于 2021-9-9 10:10:30

tomcatf 11

2021-9-9 10:10:30

让人怀疑是宝马拿钱出来拍的一部广告片。
回复 支持 反对

使用道具 举报

12
vincent4587 发表于 2021-9-9 10:14:03

vincent4587 12

2021-9-9 10:14:03

挺喜欢的一部影片,不知道什么时候能出4K蓝光啊
回复 支持 反对

使用道具 举报

13
hangzai1667 发表于 2021-9-9 10:18:52

hangzai1667 13

2021-9-9 10:18:52

收藏了,谢谢!
回复 支持 反对

使用道具 举报

14
PatrickXiao 发表于 2021-9-9 10:51:47

PatrickXiao 14

2021-9-9 10:51:47

这个经典,mini cooper的代表作啊
回复 支持 反对

使用道具 举报

15
15823352601 发表于 2021-9-9 11:27:04

15823352601 15

2021-9-9 11:27:04

字幕呢
回复 支持 反对

使用道具 举报

16
cj19791226 发表于 2021-9-9 14:49:36 Hao4K手机版

cj19791226 16

2021-9-9 14:49:36

谢谢分享!
回复 支持 反对

使用道具 举报

17
dbxalbert 发表于 2021-9-9 15:19:47

dbxalbert 17

2021-9-9 15:19:47

多谢分享。。。。
回复 支持 反对

使用道具 举报

18
zqgforever 发表于 2021-9-9 15:30:44

zqgforever 18

2021-9-9 15:30:44

shcnbzjz 发表于 2021-9-9 07:30
就是这部片子,mini车子名声大振

那3部改装的装满黄金的mini吧?印象很深刻!
回复 支持 反对

使用道具 举报

   发表回复

您需要登录后才可以回帖 登录 | 立即注册

返回列表 本版积分规则

  • 在线客服

  • 返回顶部