微博 微信

Hao4K影音

电视剧频道
电视剧封面:
电视剧名: 武当派:美国传奇 第二季4k
年  代: 2021  
国  家: 美国
类  别: 剧情 传记 
语  言: 英语
字  幕: 英文原版
上映日期: 2021-09-08
文件格式: mkv    
视频效果: 4K(3840x2160)    
资源大小: 6.39 GB
片  长: -
导  演: -
剧情简介: -
武当派:美国传奇 第二季4k Wu-Tang.An.American.Saga.S02E01.2160p.WEB.H265美剧信息
  1. Video
  2. ID : 1
  3. Format : HEVC
  4. Format/Info : High Efficiency Video Coding
  5. Format profile : Main 10@L5.1@Main
  6. Codec ID : V_MPEGH/ISO/HEVC
  7. Duration : 57 min 42 s
  8. Bit rate : 15.0 Mb/s
  9. Width : 3 840 pixels
  10. Height : 2 160 pixels
  11. Display aspect ratio : 16:9
  12. Frame rate mode : Constant
  13. Frame rate : 23.976 (24000/1001) FPS
  14. Color space : YUV
  15. Chroma subsampling : 4:2:0
  16. Bit depth : 10 bits
  17. Bits/(Pixel*Frame) : 0.075
  18. Stream size : 6.04 GiB (96%)
  19. Default : Yes
  20. Forced : No

  21. Audio
  22. ID : 2
  23. Format : E-AC-3
  24. Format/Info : Enhanced AC-3
  25. Commercial name : Dolby Digital Plus
  26. Codec ID : A_EAC3
  27. Duration : 57 min 42 s
  28. Bit rate mode : Constant
  29. Bit rate : 256 kb/s
  30. Channel(s) : 6 channels
  31. Channel layout : L R C LFE Ls Rs
  32. Sampling rate : 48.0 kHz
  33. Frame rate : 31.250 FPS (1536 SPF)
  34. Compression mode : Lossy
  35. Stream size : 106 MiB (2%)
  36. Language : English
  37. Service kind : Complete Main
  38. Default : Yes
  39. Forced : No

  40. Text #1
  41. ID : 3
  42. Format : UTF-8
  43. Codec ID : S_TEXT/UTF8
  44. Codec ID/Info : UTF-8 Plain Text
  45. Title : English
  46. Language : English
  47. Default : No
  48. Forced : No

  49. Text #2
  50. ID : 4
  51. Format : UTF-8
  52. Codec ID : S_TEXT/UTF8
  53. Codec ID/Info : UTF-8 Plain Text
  54. Title : Spanish
  55. Language : Spanish
  56. Default : No
  57. Forced : No
复制代码

武当派:美国传奇 第二季4k Wu-Tang.An.American.Saga.S02E01.2160p.WEB.H265美剧下载

武当派:美国传奇 第二季4k Wu-Tang.An.American.Saga.S02E01.2160p.WEB.H265【6.39 GB】
[Hao4k]武当派:美国传奇 第二季4k Wu-Tang.An.American.Saga.S02E01.2160p.WEB.H265-.torrent (16.82 KB)
回复

使用道具 举报

   发表回复

您需要登录后才可以回帖 登录 | 立即注册

返回列表 本版积分规则

  • 在线客服

  • 返回顶部