微博 微信

Hao4K影音

电视剧频道
电视剧封面:
电视剧名: 看见 第二季4k
年  代: 2021  
国  家: 美国
类  别: 动作 科幻 剧情 
语  言: 英语
字  幕: 英文原版
上映日期: 2021-08-27
文件格式: mkv    
视频效果: 4K(3840x2160)    
资源大小: 10.80 GB
片  长: -
导  演: 斯蒂文·奈特
剧情简介: 巴巴·沃斯(杰森·莫玛 饰)努力与家人团聚。他疏远的兄弟伊多(戴夫·巴蒂斯塔 饰)抓住了巴巴的女儿哈尼瓦,并发誓要报复他的兄弟。与此同时,巴耶王国和特里凡提亚共和国之间的战争威胁迫在眉睫,这将巴巴和他的家人直接拖入了冲突的中心。
重見光明(港) / 末日光明(台)/看见 第二季4k See.S02E01.2160p.ATVP.WEB-DL.DDP5.1.Atmos.DV.MP4.x265杜比视界美剧信息
  1. Video
  2. ID : 1
  3. Format : HEVC
  4. Format/Info : High Efficiency Video Coding
  5. Format profile : Main 10@L5@High
  6. HDR format : Dolby Vision, Version 1.0, dvhe.05.06, BL+RPU
  7. Codec ID : dvhe
  8. Codec ID/Info : High Efficiency Video Coding with Dolby Vision
  9. Duration : 1 h 2 min
  10. Bit rate : 23.9 Mb/s
  11. Width : 3 840 pixels
  12. Height : 1 824 pixels
  13. Original height : 1 820 pixels
  14. Display aspect ratio : 2.105
  15. Original display aspect ratio : 2.110
  16. Frame rate mode : Constant
  17. Frame rate : 23.976 (24000/1001) FPS
  18. Color space : YUV
  19. Chroma subsampling : 4:2:0
  20. Bit depth : 10 bits
  21. Bits/(Pixel*Frame) : 0.143
  22. Stream size : 10.5 GiB (97%)
  23. Default : Yes
  24. Alternate group : 1
  25. Encoded date : UTC 2021-08-27 04:57:55
  26. Tagged date : UTC 2021-08-27 04:58:40
  27. Codec configuration box : hvcC+dvcC

  28. Audio
  29. ID : 2
  30. Format : E-AC-3 JOC
  31. Format/Info : Enhanced AC-3 with Joint Object Coding
  32. Commercial name : Dolby Digital Plus with Dolby Atmos
  33. Codec ID : ec-3
  34. Duration : 1 h 2 min
  35. Bit rate mode : Constant
  36. Bit rate : 768 kb/s
  37. Maximum bit rate : 811 kb/s
  38. Channel(s) : 6 channels
  39. Channel layout : L R C LFE Ls Rs
  40. Sampling rate : 48.0 kHz
  41. Frame rate : 31.250 FPS (1536 SPF)
  42. Compression mode : Lossy
  43. Stream size : 344 MiB (3%)
  44. Title : English
  45. Language : English
  46. Service kind : Complete Main
  47. Default : Yes
  48. Alternate group : 1
  49. Tagged date : UTC 2021-08-27 04:58:40
  50. Complexity index : Not present / 16
  51. Number of dynamic objects : 15
  52. Bed channel count : 1 channel
  53. Bed channel configuration : LFE

  54. Text #1
  55. ID : 3
  56. Format : Timed Text
  57. Codec ID : tx3g
  58. Duration : 1 h 1 min
  59. Bit rate mode : Variable
  60. Bit rate : 57 b/s
  61. Stream size : 25.5 KiB (0%)
  62. Title : English
  63. Language : English
  64. Forced : No
  65. Encoded date : UTC 2021-08-27 04:58:37
  66. Tagged date : UTC 2021-08-27 04:58:40

  67. Text #2
  68. ID : 4
  69. Format : Timed Text
  70. Codec ID : tx3g
  71. Duration : 1 h 1 min
  72. Bit rate mode : Variable
  73. Bit rate : 67 b/s
  74. Stream size : 30.0 KiB (0%)
  75. Title : English
  76. Language : English
  77. Forced : No
  78. Encoded date : UTC 2021-08-27 04:58:37
  79. Tagged date : UTC 2021-08-27 04:58:40

  80. Text #3
  81. ID : 5
  82. Format : Timed Text
  83. Codec ID : tx3g
  84. Duration : 1 h 2 min
  85. Bit rate mode : Variable
  86. Bit rate : 80 b/s
  87. Stream size : 36.6 KiB (0%)
  88. Title : Arabic
  89. Language : Arabic
  90. Forced : No
  91. Encoded date : UTC 2021-08-27 04:58:37
  92. Tagged date : UTC 2021-08-27 04:58:40

  93. Text #4
  94. ID : 6
  95. Format : Timed Text
  96. Codec ID : tx3g
  97. Duration : 1 h 2 min
  98. Bit rate mode : Variable
  99. Bit rate : 80 b/s
  100. Stream size : 36.8 KiB (0%)
  101. Title : Bulgarian
  102. Language : Bulgarian
  103. Forced : No
  104. Encoded date : UTC 2021-08-27 04:58:37
  105. Tagged date : UTC 2021-08-27 04:58:40

  106. Text #5
  107. ID : 7
  108. Format : Timed Text
  109. Codec ID : tx3g
  110. Duration : 1 h 2 min
  111. Bit rate mode : Variable
  112. Bit rate : 51 b/s
  113. Stream size : 23.5 KiB (0%)
  114. Title : Chinese-Cantonese
  115. Language : Chinese
  116. Forced : No
  117. Encoded date : UTC 2021-08-27 04:58:37
  118. Tagged date : UTC 2021-08-27 04:58:40
复制代码

重見光明(港) / 末日光明(台)/看见 第二季4k See.S02E01.2160p.ATVP.WEB-DL.DDP5.1.Atmos.DV.MP4.x265杜比视界美剧下载下载
看见 第二季4k See.S02E01.2160p.ATVP.WEB-DL.DDP5.1.Atmos.DV.MP4.x265杜比视界版本【10.80 GB】
[Hao4k]看见 第二季4k See.S02E01.2160p.ATVP.WEB-DL.DDP5.1.Atmos.DV.MP4.x265-DVSUX.torrent (14.16 KB)
回复

使用道具 举报

全部回复2

XLYONE 发表于 前天 18:22

XLYONE 2

前天 18:22

有没有第三集下载呀!
回复 支持 反对

使用道具 举报

sqsm009 发表于 昨天 11:13

sqsm009 3

昨天 11:13

有没有第三集下载呀!
回复 支持 反对

使用道具 举报

   发表回复

您需要登录后才可以回帖 登录 | 立即注册

返回列表 本版积分规则

  • 在线客服

  • 返回顶部