微博 微信

Hao4K影音

电影频道
电影封面:
片  名: Resurgence
电影分类: 纪录片 其他 
国  家: 美国 
年  代: 2021年
分 辨 率: 4K(3840x2160)
电影格式: MKV|REMUX 
画质标准: SDR 
音质编码:  
电影声道: 5.1声道 
帧数/FPS: 23.976 帧
电影语言: 英文原版 
资源大小: 16.51 GB
导  演: 赫伯加农炮马斯顿索耶斯
豆瓣评分: 7.4 分
中文字幕: -
剧情简介: -
Resurgence.2021.2160p.WEBRip.x265.8bit.SDR.DD5.1-4k纪录片信息
  1. Video
  2. ID : 1
  3. Format : HEVC
  4. Format/Info : High Efficiency Video Coding
  5. Format profile : Main@L5.1@High
  6. Codec ID : V_MPEGH/ISO/HEVC
  7. Duration : 1 h 52 min
  8. Bit rate : 20.6 Mb/s
  9. Width : 3 840 pixels
  10. Height : 2 152 pixels
  11. Display aspect ratio : 16:9
  12. Frame rate mode : Constant
  13. Frame rate : 23.976 (24000/1001) FPS
  14. Color space : YUV
  15. Chroma subsampling : 4:2:0
  16. Bit depth : 8 bits
  17. Bits/(Pixel*Frame) : 0.104
  18. Stream size : 16.2 GiB (98%)
  19. Writing library : x265 3.5+9-bf91444e0:[Windows][GCC 10.0.0][64 bit] 8bit+10bit+12bit
  20. Encoding settings : cpuid=1111039 / frame-threads=4 / numa-pools=16 / wpp / no-pmode / no-pme / no-psnr / no-ssim / log-level=2 / input-csp=1 / input-res=3840x2152 / interlace=0 / total-frames=0 / level-idc=51 / high-tier=1 / uhd-bd=0 / ref=4 / no-allow-non-conformance / no-repeat-headers / annexb / aud / no-eob / no-eos / hrd / info / hash=0 / no-temporal-layers / no-open-gop / min-keyint=23 / keyint=250 / gop-lookahead=0 / bframes=4 / b-adapt=2 / b-pyramid / bframe-bias=0 / rc-lookahead=20 / lookahead-slices=4 / scenecut=40 / hist-scenecut=0 / radl=0 / no-splice / no-intra-refresh / ctu=64 / min-cu-size=8 / rect / no-amp / max-tu-size=32 / tu-inter-depth=1 / tu-intra-depth=1 / limit-tu=0 / rdoq-level=0 / dynamic-rd=0.00 / no-ssim-rd / signhide / no-tskip / nr-intra=0 / nr-inter=0 / no-constrained-intra / no-strong-intra-smoothing / max-merge=3 / limit-refs=1 / no-limit-modes / me=1 / subme=2 / merange=57 / temporal-mvp / no-frame-dup / no-hme / weightp / no-weightb / no-analyze-src-pics / deblock=-3:-3 / no-sao / no-sao-non-deblock / rd=3 / selective-sao=0 / early-skip / rskip / no-fast-intra / no-tskip-fast / no-cu-lossless / b-intra / no-splitrd-skip / rdpenalty=0 / psy-rd=2.00 / psy-rdoq=0.00 / no-rd-refine / no-lossless / cbqpoffs=0 / crqpoffs=0 / rc=crf / crf=19.0 / qcomp=0.60 / qpstep=4 / stats-write=0 / stats-read=0 / vbv-maxrate=160000 / vbv-bufsize=160000 / vbv-init=0.9 / min-vbv-fullness=50.0 / max-vbv-fullness=80.0 / crf-max=0.0 / crf-min=0.0 / ipratio=1.40 / pbratio=1.30 / aq-mode=2 / aq-strength=1.00 / no-cutree / zone-count=0 / no-strict-cbr / qg-size=32 / no-rc-grain / qpmax=69 / qpmin=0 / no-const-vbv / sar=0 / overscan=0 / videoformat=5 / range=0 / colorprim=1 / transfer=1 / colormatrix=1 / chromaloc=0 / display-window=0 / cll=0,0 / min-luma=0 / max-luma=255 / log2-max-poc-lsb=8 / vui-timing-info / vui-hrd-info / slices=1 / no-opt-qp-pps / no-opt-ref-list-length-pps / no-multi-pass-opt-rps / scenecut-bias=0.05 / hist-threshold=0.03 / no-opt-cu-delta-qp / no-aq-motion / no-hdr10 / no-hdr10-opt / no-dhdr10-opt / no-idr-recovery-sei / analysis-reuse-level=0 / analysis-save-reuse-level=0 / analysis-load-reuse-level=0 / scale-factor=0 / refine-intra=0 / refine-inter=0 / refine-mv=1 / refine-ctu-distortion=0 / no-limit-sao / ctu-info=0 / no-lowpass-dct / refine-analysis-type=0 / copy-pic=1 / max-ausize-factor=1.0 / no-dynamic-refine / no-single-sei / no-hevc-aq / no-svt / no-field / qp-adaptation-range=1.00 / scenecut-aware-qp=0conformance-window-offsets / right=0 / bottom=0 / decoder-max-rate=0 / no-vbv-live-multi-pass
  21. Language : English
  22. Default : Yes
  23. Forced : No
  24. Color range : Limited
  25. Color primaries : BT.709
  26. Transfer characteristics : BT.709
  27. Matrix coefficients : BT.709

  28. Audio
  29. ID : 2
  30. Format : AC-3
  31. Format/Info : Audio Coding 3
  32. Commercial name : Dolby Digital
  33. Codec ID : A_AC3
  34. Duration : 1 h 52 min
  35. Bit rate mode : Constant
  36. Bit rate : 384 kb/s
  37. Channel(s) : 6 channels
  38. Channel layout : L R C LFE Ls Rs
  39. Sampling rate : 48.0 kHz
  40. Frame rate : 31.250 FPS (1536 SPF)
  41. Compression mode : Lossy
  42. Delay relative to video : 15 ms
  43. Stream size : 310 MiB (2%)
  44. Language : English
  45. Service kind : Complete Main
  46. Default : Yes
  47. Forced : No

  48. Text
  49. ID : 3
  50. Format : UTF-8
  51. Codec ID : S_TEXT/UTF8
  52. Codec ID/Info : UTF-8 Plain Text
  53. Duration : 1 h 51 min
  54. Bit rate : 113 b/s
  55. Count of elements : 2361
  56. Stream size : 93.3 KiB (0%)
  57. Language : German
  58. Default : No
  59. Forced : No

  60. Menu
  61. 00:00:00.000 : 1
  62. 00:01:15.000 : 2
  63. 00:14:56.000 : 3
  64. 00:28:21.000 : 4
  65. 00:42:19.000 : 5
  66. 00:56:40.000 : 6
  67. 01:09:10.000 : 7
  68. 01:22:49.000 : 8
  69. 01:36:45.000 : 9
  70. 01:50:23.000 : 10
复制代码


Resurgence.2021.2160p.WEBRip.x265.8bit.SDR.DD5.1-4k纪录片下载

Resurgence.2021.2160p.WEBRip.x265.8bit.SDR.DD5.1【16.51 GB】
Resurgence.2021.2160p.WEBRip.x265.8bit.SDR.DD5.1-DOCiLE.torrent (21.31 KB)
回复

使用道具 举报

全部回复14

chlwql123 发表于 7 天前

chlwql123 2

7 天前

这片不错哦
回复 支持 反对

使用道具 举报

Noodlesson 发表于 7 天前

Noodlesson 3

7 天前

谢谢分享 纪录片可以看看
回复 支持 反对

使用道具 举报

tg123 发表于 7 天前

tg123 4

7 天前

下载看看,谢谢分享!
回复 支持 反对

使用道具 举报

wushenggong1314 发表于 7 天前

wushenggong1314 5

7 天前

这个是什么片子啊?
回复 支持 反对

使用道具 举报

laoli420106 发表于 7 天前

laoli420106 6

7 天前

这个片子字幕很难找吧
回复 支持 反对

使用道具 举报

mazeg 发表于 7 天前

mazeg 7

7 天前

纪录片不容错过!
回复 支持 反对

使用道具 举报

犹豫不决 发表于 6 天前

犹豫不决 8

6 天前

诚意不足,口头谢过!
回复 支持 反对

使用道具 举报

82703447 发表于 5 天前

82703447 9

5 天前

下载了试试
回复 支持 反对

使用道具 举报

shumo 发表于 5 天前

shumo 10

5 天前

太强了吧,无敌,楼主牛人,佩服
回复 支持 反对

使用道具 举报

chenhemai 发表于 4 天前

chenhemai 11

4 天前


谢谢楼主分享
回复 支持 反对

使用道具 举报

lxwanycall 发表于 3 天前 Hao4K手机版

lxwanycall 12

3 天前

这是讲什么的纪录片,看着评分挺高的。
回复 支持 反对

使用道具 举报

maywei 发表于 3 天前

maywei 13

3 天前

不错的纪录片 感谢分享
回复 支持 反对

使用道具 举报

123667254 发表于 前天 13:09

123667254 14

前天 13:09

听说这个好看,试试
回复 支持 反对

使用道具 举报

Biosnake88 发表于 前天 18:38

Biosnake88 15

前天 18:38

导演这名字是认真的么
回复 支持 反对

使用道具 举报

   发表回复

您需要登录后才可以回帖 登录 | 立即注册

返回列表 本版积分规则

  • 在线客服

  • 返回顶部