微博 微信

Hao4K影音

电视剧频道
电视剧封面:
电视剧名: 重返人生 第二季4k
年  代: 2021  
国  家: 美国
类  别: 剧情 喜剧 
语  言: 英语
字  幕: 英文原版
上映日期: 2021-09-13
文件格式: mkv    
视频效果: 4K(3840x2160)    
资源大小: 17.17 GB
片  长: 25 分钟
导  演: 重返人生 第二季4k
剧情简介:  Critically acclaimed series Back To Life (6x30’), created by and starring Daisy Haggard (Black Mirror, Uncle) and co-written by Haggard and Perrier award-winner Laura Solon (Office Christmas Party), has been commissioned for a second series by BBC Three and Showtime, in association with All3Media International.
  The series is produced by multi-award-winning production company, Two Brothers Pictures (Fleabag, Baptiste, Liar, The Missing) in co-production with BBC Three and Showtime Networks with Daisy Haggard reprising her role as Miri Matteson.
  The first series, described as a “darkly comic gem” by The Guardian, debuted on BBC Three in April 2019 and details Miri Matterson’s return to her seaside family home, having spent 18 years in prison for a crime committed during her formative years. Following her first few weeks on the outside, Miri, now a determined yet naïve adult, attempts to put the past behind her in order to have a normal life.
  Series two has been commissioned by Shane Allen, Controller of Comedy Commissioning and Fiona Campbell, Controller for BBC Three, and by Gary Levine and Jana Winograde, Presidents of Entertainment, Showtime Networks Inc.
  Daisy Haggard says: “Laura and I are delighted that Showtime and the BBC are giving us a chance to continue Miri’s story. There’s so much more to tell and we are incredibly grateful to have the opportunity to do that!”
  Harry Williams, Writer and Managing Director, Two Brothers Pictures, says: “The reception that Back To Life has received has been amazing. Daisy and Laura are those rare writers that can make you laugh and cry in equal measure - which is a wonderful quality. We can\'t wait for fans to see what they have in store for Miri this time around.”
  Kate Daughton, Head of Comedy, BBC, says: “BBC Three’s job is to champion the next wave of ambitious and talented writers. We’ve struck gold with Daisy and Laura. Back To Life was an instant hit with audiences here and it’s been great to see their distinct UK voices enjoying international success as well.”
  Back To Life is created, written and executive produced by Daisy Haggard. The series will be produced by Two Brothers Pictures and executive produced by Harry and Jack Williams and Sarah Hammond. Co-writer Laura Solon will also executive produce. The Commissioning Editor for the BBC is Kate Daughton.
重拾人生/重返人生 第二季4k Back.to.Life.S02.2160p.WEBRip.DD5.1.x265-4k美剧信息
  1. Video
  2. ID : 1
  3. Format : HEVC
  4. Format/Info : High Efficiency Video Coding
  5. Format profile : Main@L5@Main
  6. Codec ID : V_MPEGH/ISO/HEVC
  7. Duration : 28 min 20 s
  8. Bit rate : 14.5 Mb/s
  9. Width : 3 840 pixels
  10. Height : 2 160 pixels
  11. Display aspect ratio : 16:9
  12. Frame rate mode : Constant
  13. Frame rate : 25.000 FPS
  14. Color space : YUV
  15. Chroma subsampling : 4:2:0
  16. Bit depth : 8 bits
  17. Bits/(Pixel*Frame) : 0.070
  18. Stream size : 2.87 GiB (95%)
  19. Writing library : x265 3.5hy:[Linux][GCC 7.5.0][64 bit] 8bit
  20. Encoding settings : cpuid=1111039 / frame-threads=2 / wpp / no-pmode / no-pme / no-psnr / no-ssim / log-level=2 / input-csp=1 / input-res=3840x2160 / interlace=0 / total-frames=0 / level-idc=0 / high-tier=1 / uhd-bd=0 / ref=4 / no-allow-non-conformance / repeat-headers / annexb / aud / hrd / info / hash=0 / no-temporal-layers / no-open-gop / min-keyint=48 / keyint=48 / gop-lookahead=0 / bframes=4 / b-adapt=2 / b-pyramid / bframe-bias=0 / rc-lookahead=48 / lookahead-slices=4 / scenecut=0 / hist-scenecut=0 / radl=0 / no-splice / no-intra-refresh / ctu=64 / min-cu-size=8 / rect / no-amp / max-tu-size=32 / tu-inter-depth=1 / tu-intra-depth=1 / limit-tu=0 / rdoq-level=2 / dynamic-rd=0.00 / no-ssim-rd / signhide / no-tskip / nr-intra=100 / nr-inter=200 / no-constrained-intra / strong-intra-smoothing / max-merge=3 / limit-refs=3 / limit-modes / me=3 / subme=3 / merange=57 / temporal-mvp / no-frame-dup / no-hme / weightp / no-weightb / no-analyze-src-pics / deblock=0:0 / no-sao / no-sao-non-deblock / rd=4 / selective-sao=0 / no-early-skip / no-rskip / no-fast-intra / no-tskip-fast / no-cu-lossless / no-b-intra / no-splitrd-skip / rdpenalty=0 / psy-rd=0.00 / psy-rdoq=10.00 / no-rd-refine / no-lossless / cbqpoffs=0 / crqpoffs=0 / rc=abr / bitrate=15000 / qcomp=0.60 / qpstep=1 / stats-write=0 / stats-read=2 / cplxblur=20.0 / qblur=0.5 / vbv-maxrate=18000 / vbv-bufsize=12000 / vbv-init=0.6 / min-vbv-fullness=50.0 / max-vbv-fullness=80.0 / vbv-end=0.6 / vbv-end-fr-adj=0.0 / ipratio=1.10 / pbratio=1.00 / aq-mode=0 / aq-strength=0.00 / no-cutree / zone-count=0 / no-strict-cbr / qg-size=32 / rc-grain / qpmax=69 / qpmin=0 / const-vbv / sar=0 / overscan=0 / videoformat=5 / range=0 / colorprim=1 / transfer=1 / colormatrix=1 / chromaloc=0 / display-window=0 / cll=0,0 / min-luma=0 / max-luma=255 / log2-max-poc-lsb=8 / vui-timing-info / vui-hrd-info / no-concatenation / slices=1 / no-opt-qp-pps / no-opt-ref-list-length-pps / no-multi-pass-opt-rps / scenecut-bias=0.05 / hist-threshold=0.03 / no-opt-cu-delta-qp / no-aq-motion / no-hdr10 / no-hdr10-opt / no-dhdr10-opt / no-idr-recovery-sei / analysis-reuse-level=0 / analysis-save-reuse-level=0 / analysis-load-reuse-level=0 / scale-factor=0 / refine-intra=0 / refine-inter=0 / refine-mv=1 / refine-ctu-distortion=0 / no-limit-sao / ctu-info=0 / no-lowpass-dct / refine-analysis-type=0 / copy-pic=1 / max-ausize-factor=1.0 / no-dynamic-refine / no-single-sei / no-hevc-aq / no-svt / no-field / qp-adaptation-range=1.00 / scenecut-aware-qp=0conformance-window-offsets / right=0 / bottom=0 / decoder-max-rate=0 / no-vbv-live-multi-pass
  21. Default : Yes
  22. Forced : No
  23. Color range : Limited
  24. Color primaries : BT.709
  25. Transfer characteristics : BT.709
  26. Matrix coefficients : BT.709

  27. Audio
  28. ID : 2
  29. Format : AC-3
  30. Format/Info : Audio Coding 3
  31. Commercial name : Dolby Digital
  32. Codec ID : A_AC3
  33. Duration : 28 min 20 s
  34. Bit rate mode : Constant
  35. Bit rate : 384 kb/s
  36. Channel(s) : 6 channels
  37. Channel layout : L R C LFE Ls Rs
  38. Sampling rate : 48.0 kHz
  39. Frame rate : 31.250 FPS (1536 SPF)
  40. Compression mode : Lossy
  41. Stream size : 77.8 MiB (3%)
  42. Language : English
  43. Service kind : Complete Main
  44. Default : Yes
  45. Forced : No

  46. Text
  47. ID : 3
  48. Format : UTF-8
  49. Codec ID : S_TEXT/UTF8
  50. Codec ID/Info : UTF-8 Plain Text
  51. Title : English
  52. Language : English
  53. Default : No
  54. Forced : No
复制代码

重拾人生/重返人生 第二季4k Back.to.Life.S02.2160p.WEBRip.DD5.1.x265-4k美剧下载

重返人生 第二季4k Back.to.Life.S02.2160p.WEBRip.DD5.1.x265【17.17 GB】
[Hao4k]重返人生 第二季4k Back.to.Life.S02.2160p.WEBRip.DD5.1.x265-GGEZ.torrent (22.44 KB)
回复

使用道具 举报

   发表回复

您需要登录后才可以回帖 登录 | 立即注册

返回列表 本版积分规则

  • 在线客服

  • 返回顶部