微博 微信

Hao4K影音

电视剧频道
电视剧封面:
电视剧名: Y染色体4k
年  代: 2021  
国  家: 美国
类  别: 动作 科幻 冒险 剧情 奇幻 
语  言: 英语
字  幕: 英文原版
上映日期: 2021-09-13
文件格式: mkv    
视频效果: 4K(3840x2160)    
资源大小: 6.06 GB
片  长: -
导  演: 梅丽娜·马苏卡斯
剧情简介: 该剧改编自DC同名漫画书,故事背景设置在末日世界,一场大灾难导致男主之外的男性全部消亡,新世界的一切均由女性主宰。戴安·琳恩、巴里·基奥根饰一对母子。试播集导演梅丽娜·马苏卡斯(《无为大师》)。
Y / Y染色体:世界上最后一个男人/Y染色体4k Y.The.Last.Man.S01E01.2160p.HULU.WEBRip.DDP5.1.x265美剧信息
  1. Video
  2. ID : 1
  3. Format : HEVC
  4. Format/Info : High Efficiency Video Coding
  5. Format profile : Main 10@L5.1@Main
  6. Codec ID : V_MPEGH/ISO/HEVC
  7. Duration : 54 min 26 s
  8. Bit rate : 15.7 Mb/s
  9. Width : 3 840 pixels
  10. Height : 2 160 pixels
  11. Display aspect ratio : 16:9
  12. Frame rate mode : Constant
  13. Frame rate : 23.976 (24000/1001) FPS
  14. Color space : YUV
  15. Chroma subsampling : 4:2:0
  16. Bit depth : 10 bits
  17. Bits/(Pixel*Frame) : 0.079
  18. Stream size : 5.96 GiB (98%)
  19. Default : Yes
  20. Forced : No

  21. Audio
  22. ID : 2
  23. Format : E-AC-3
  24. Format/Info : Enhanced AC-3
  25. Commercial name : Dolby Digital Plus
  26. Codec ID : A_EAC3
  27. Duration : 54 min 26 s
  28. Bit rate mode : Constant
  29. Bit rate : 256 kb/s
  30. Channel(s) : 6 channels
  31. Channel layout : L R C LFE Ls Rs
  32. Sampling rate : 48.0 kHz
  33. Frame rate : 31.250 FPS (1536 SPF)
  34. Compression mode : Lossy
  35. Stream size : 99.7 MiB (2%)
  36. Language : English
  37. Service kind : Complete Main
  38. Default : Yes
  39. Forced : No

  40. Text #1
  41. ID : 3
  42. Format : UTF-8
  43. Codec ID : S_TEXT/UTF8
  44. Codec ID/Info : UTF-8 Plain Text
  45. Duration : 52 min 22 s
  46. Bit rate : 67 b/s
  47. Count of elements : 873
  48. Stream size : 26.0 KiB (0%)
  49. Language : English
  50. Default : No
  51. Forced : No

  52. Text #2
  53. ID : 4
  54. Format : UTF-8
  55. Codec ID : S_TEXT/UTF8
  56. Codec ID/Info : UTF-8 Plain Text
  57. Duration : 54 min 13 s
  58. Bit rate : 75 b/s
  59. Count of elements : 1029
  60. Stream size : 29.8 KiB (0%)
  61. Title : SDH
  62. Language : English
  63. Default : No
  64. Forced : No

  65. Menu
  66. 00:15:12.013 : Chapter 01
  67. 00:24:52.017 : Chapter 02
  68. 00:31:53.017 : Chapter 03
  69. 00:43:56.010 : Chapter 04
  70. 00:53:25.014 : Credits
复制代码

Y / Y染色体:世界上最后一个男人/Y染色体4k Y.The.Last.Man.S01E01.2160p.HULU.WEBRip.DDP5.1.x265美剧下载

Y染色体4k Y.The.Last.Man.S01E01.2160p.HULU.WEBRip.DDP5.1.x265【6.06 GB】
[Hao4k]Y染色体4k Y.The.Last.Man.S01E01.2160p.HULU.WEBRip.DDP5.1.x265-XiBiU.torrent (15.79 KB)
回复

使用道具 举报

全部回复2

engaii 发表于 5 天前

engaii 2

5 天前

特别感谢楼主啊
回复 支持 反对

使用道具 举报

17774419373 发表于 3 天前

17774419373 3

3 天前

好好好,下来看看世界上最后一个男人长什么样。
回复 支持 反对

使用道具 举报

   发表回复

您需要登录后才可以回帖 登录 | 立即注册

返回列表 本版积分规则

  • 在线客服

  • 返回顶部