微博 微信 手机APP

Hao4K影音

电影频道
电影封面:
片  名: 派对女孩升天记4k
电影分类: 喜剧 奇幻 爱情片 
国  家: 美国 
年  代: 2021年
分 辨 率: 4K(3840x2160)
电影格式: MKV|REMUX 
画质标准: SDR 
音质编码: Dolby Digital Plus Audio 
电影声道: 5.1声道 
帧数/FPS: 24.000 帧
电影语言: 英文原版 
资源大小: 15.58 GB
导  演: 斯蒂芬·赫瑞克
豆瓣评分: 5.7 分
中文字幕: -
剧情简介:  交际花(维多利亚·嘉丝蒂饰)经历了最严重的派对出丑…在她的生日周死去。让她惊讶的是,她得到了第二次机会来纠正自己在人世间的错误,重新与所爱的人联系,最重要的是,证明自己有资格进入天空的贵宾室。
社交女王的升天之旅(台) / 死都要开P(港)/派对女孩升天记4k Afterlife.of.the.Party.2021.2160p.NF.WEBRip.x265.10bit.SDR.DDP5.1.Atmos-4k电影信息
  1. Video
  2. ID : 1
  3. Format : HEVC
  4. Format/Info : High Efficiency Video Coding
  5. Format profile : Main 10@L5.1@High
  6. Codec ID : V_MPEGH/ISO/HEVC
  7. Duration : 1 h 49 min
  8. Bit rate : 19.5 Mb/s
  9. Width : 3 840 pixels
  10. Height : 1 600 pixels
  11. Display aspect ratio : 2.40:1
  12. Frame rate mode : Constant
  13. Frame rate : 24.000 FPS
  14. Color space : YUV
  15. Chroma subsampling : 4:2:0 (Type 2)
  16. Bit depth : 10 bits
  17. Bits/(Pixel*Frame) : 0.132
  18. Stream size : 15.0 GiB (96%)
  19. Writing library : x265 3.5+13-4c6880de4:[Windows][GCC 11.2.0][64 bit] 10bit
  20. Encoding settings : cpuid=1111039 / frame-threads=4 / numa-pools=24 / wpp / no-pmode / no-pme / no-psnr / ssim / log-level=2 / input-csp=1 / input-res=3840x1600 / interlace=0 / total-frames=158226 / level-idc=51 / high-tier=1 / uhd-bd=0 / ref=4 / no-allow-non-conformance / repeat-headers / annexb / no-aud / no-eob / no-eos / hrd / info / hash=0 / no-temporal-layers / no-open-gop / min-keyint=5 / keyint=240 / gop-lookahead=0 / bframes=8 / b-adapt=2 / b-pyramid / bframe-bias=0 / rc-lookahead=72 / lookahead-slices=0 / scenecut=40 / no-hist-scenecut / radl=0 / no-splice / no-intra-refresh / ctu=64 / min-cu-size=8 / no-rect / no-amp / max-tu-size=32 / tu-inter-depth=1 / tu-intra-depth=1 / limit-tu=0 / rdoq-level=2 / dynamic-rd=0.00 / no-ssim-rd / signhide / no-tskip / nr-intra=0 / nr-inter=0 / no-constrained-intra / no-strong-intra-smoothing / max-merge=4 / limit-refs=3 / no-limit-modes / me=3 / subme=5 / merange=48 / temporal-mvp / no-frame-dup / hme / Level / merange / L0,L1,L2=16,32,48 / weightp / weightb / no-analyze-src-pics / deblock=-3:-3 / no-sao / no-sao-non-deblock / rd=4 / selective-sao=0 / no-early-skip / rskip / no-fast-intra / no-tskip-fast / no-cu-lossless / b-intra / no-splitrd-skip / rdpenalty=0 / psy-rd=2.00 / psy-rdoq=1.00 / no-rd-refine / no-lossless / cbqpoffs=0 / crqpoffs=0 / rc=crf / crf=21.0 / qcomp=0.65 / qpstep=4 / stats-write=0 / stats-read=0 / vbv-maxrate=160000 / vbv-bufsize=160000 / vbv-init=0.9 / min-vbv-fullness=50.0 / max-vbv-fullness=80.0 / crf-max=0.0 / crf-min=0.0 / ipratio=1.35 / pbratio=1.25 / aq-mode=2 / aq-strength=0.80 / no-cutree / zone-count=1 / zones: / start-frame=149990 / end-frame=158225 / qp=40 / no-strict-cbr / qg-size=32 / no-rc-grain / qpmax=69 / qpmin=0 / no-const-vbv / sar=1 / overscan=0 / videoformat=5 / range=0 / colorprim=1 / transfer=1 / colormatrix=1 / chromaloc=1 / chromaloc-top=2 / chromaloc-bottom=2 / display-window=0 / cll=0,0 / min-luma=0 / max-luma=1023 / log2-max-poc-lsb=8 / vui-timing-info / vui-hrd-info / slices=1 / no-opt-qp-pps / no-opt-ref-list-length-pps / no-multi-pass-opt-rps / scenecut-bias=0.05 / hist-threshold=0.03 / no-opt-cu-delta-qp / no-aq-motion / no-hdr10 / no-hdr10-opt / no-dhdr10-opt / no-idr-recovery-sei / analysis-reuse-level=0 / analysis-save-reuse-level=0 / analysis-load-reuse-level=0 / scale-factor=0 / refine-intra=0 / refine-inter=0 / refine-mv=1 / refine-ctu-distortion=0 / no-limit-sao / ctu-info=0 / no-lowpass-dct / refine-analysis-type=0 / copy-pic=1 / max-ausize-factor=1.0 / no-dynamic-refine / no-single-sei / no-hevc-aq / no-svt / no-field / qp-adaptation-range=1.00 / scenecut-aware-qp=0conformance-window-offsets / right=0 / bottom=0 / decoder-max-rate=0 / no-vbv-live-multi-pass
  21. Default : Yes
  22. Forced : No
  23. Color range : Limited
  24. Color primaries : BT.709
  25. Transfer characteristics : BT.709
  26. Matrix coefficients : BT.709

  27. Audio
  28. ID : 2
  29. Format : E-AC-3 JOC
  30. Format/Info : Enhanced AC-3 with Joint Object Coding
  31. Commercial name : Dolby Digital Plus with Dolby Atmos
  32. Codec ID : A_EAC3
  33. Duration : 1 h 49 min
  34. Bit rate mode : Constant
  35. Bit rate : 768 kb/s
  36. Channel(s) : 6 channels
  37. Channel layout : L R C LFE Ls Rs
  38. Sampling rate : 48.0 kHz
  39. Frame rate : 31.250 FPS (1536 SPF)
  40. Compression mode : Lossy
  41. Delay relative to video : 13 ms
  42. Stream size : 604 MiB (4%)
  43. Language : English
  44. Service kind : Complete Main
  45. Default : Yes
  46. Forced : No
  47. Complexity index : 16
  48. Number of dynamic objects : 15
  49. Bed channel count : 1 channel
  50. Bed channel configuration : LFE

  51. Text #1
  52. ID : 3
  53. Format : UTF-8
  54. Codec ID : S_TEXT/UTF8
  55. Codec ID/Info : UTF-8 Plain Text
  56. Duration : 1 h 46 min
  57. Bit rate : 74 b/s
  58. Count of elements : 1673
  59. Stream size : 58.0 KiB (0%)
  60. Language : English
  61. Default : No
  62. Forced : No

  63. Text #2
  64. ID : 4
  65. Format : UTF-8
  66. Codec ID : S_TEXT/UTF8
  67. Codec ID/Info : UTF-8 Plain Text
  68. Duration : 1 h 48 min
  69. Bit rate : 82 b/s
  70. Count of elements : 1975
  71. Stream size : 65.5 KiB (0%)
  72. Title : SDH
  73. Language : English
  74. Default : No
  75. Forced : No

  76. Text #3
  77. ID : 5
  78. Format : UTF-8
  79. Codec ID : S_TEXT/UTF8
  80. Codec ID/Info : UTF-8 Plain Text
  81. Duration : 1 h 48 min
  82. Bit rate : 111 b/s
  83. Count of elements : 1548
  84. Stream size : 88.5 KiB (0%)
  85. Language : Arabic
  86. Default : No
  87. Forced : No

  88. Text #31
  89. ID : 33
  90. Format : UTF-8
  91. Codec ID : S_TEXT/UTF8
  92. Codec ID/Info : UTF-8 Plain Text
  93. Duration : 1 h 48 min
  94. Bit rate : 97 b/s
  95. Count of elements : 1484
  96. Stream size : 77.2 KiB (0%)
  97. Language : Vietnamese
  98. Default : No
  99. Forced : No

  100. Text #32
  101. ID : 34
  102. Format : UTF-8
  103. Codec ID : S_TEXT/UTF8
  104. Codec ID/Info : UTF-8 Plain Text
  105. Duration : 1 h 48 min
  106. Bit rate : 72 b/s
  107. Count of elements : 1609
  108. Stream size : 57.3 KiB (0%)
  109. Title : Simplified
  110. Language : Chinese
  111. Default : No
  112. Forced : No

  113. Text #33
  114. ID : 35
  115. Format : UTF-8
  116. Codec ID : S_TEXT/UTF8
  117. Codec ID/Info : UTF-8 Plain Text
  118. Duration : 1 h 48 min
  119. Bit rate : 59 b/s
  120. Count of elements : 1508
  121. Stream size : 47.5 KiB (0%)
  122. Title : Traditional
  123. Language : Chinese
  124. Default : No
  125. Forced : No
复制代码


社交女王的升天之旅(台) / 死都要开P(港)/派对女孩升天记4k Afterlife.of.the.Party.2021.2160p.NF.WEBRip.x265.10bit.SDR.DDP5.1.Atmos-4k电影下载
派对女孩升天记4k Afterlife.of.the.Party.2021.2160p.NF.WEBRip.x265.10bit.SDR.DDP5.1.Atmos简繁中字【4K SDR 15.58 GB】
[Hao4k]派对女孩升天记4k Afterlife.of.the.Party.2021.2160p.NF.WEBRip.x265.10bit.S.torrent (20.14 KB, 售价: 2 个K币)
回复

使用道具 举报

全部回复8

dengke118 发表于 2021-9-16 08:56:22

dengke118 2

2021-9-16 08:56:22

很不错的电影,值得看一看!
回复 支持 反对

使用道具 举报

missle3000 发表于 2021-9-16 09:49:29

missle3000 3

2021-9-16 09:49:29

新片就收藏一波
回复 支持 反对

使用道具 举报

铁哥HD 发表于 2021-9-16 11:34:27

铁哥HD 4

2021-9-16 11:34:27

想看看 如何?
回复 支持 反对

使用道具 举报

dyczw 发表于 2021-9-16 15:10:08

dyczw 5

2021-9-16 15:10:08

再等等蓝光版本,楼主发片辛苦!
回复 支持 反对

使用道具 举报

chenhemai 发表于 2021-9-16 17:27:52

chenhemai 6

2021-9-16 17:27:52

谢谢楼主分享
回复 支持 反对

使用道具 举报

bbgrnnji 发表于 2021-9-16 17:33:10

bbgrnnji 7

2021-9-16 17:33:10

我怎么觉得升天这个名字不好
回复 支持 反对

使用道具 举报

asdzxc77 发表于 2021-9-16 20:05:02

asdzxc77 8

2021-9-16 20:05:02

谢谢楼主分享
回复 支持 反对

使用道具 举报

dg226 发表于 2021-9-17 12:16:05

dg226 9

2021-9-17 12:16:05

谢谢分享!看美女,哈哈哈!
回复 支持 反对

使用道具 举报

   发表回复

您需要登录后才可以回帖 登录 | 立即注册

返回列表 本版积分规则

  • 发布新帖

  • 客服/帮助

  • 手机APP

  • 返回顶部