微博 微信 手机APP

Hao4K影音

电影频道
电影封面:
片  名: 糖果人4k
电影分类: 恐怖 惊悚 
国  家: 美国 加拿大 
年  代: 2021年
分 辨 率: 4K(3840x2160)
电影格式: MKV|REMUX 
画质标准: HDR SDR 
音质编码: Dolby Digital Plus Audio 
电影声道: 5.1声道 
帧数/FPS: 23.976 帧
电影语言: 英文原版 
资源大小: 9.55 GB
导  演: 尼娅·达科斯塔
豆瓣评分: 6.6 分
中文字幕: -
剧情简介: 影片改编自恐怖小说大师克里夫·巴克的短篇作品,聚焦“糖果人,传说你对镜子说5次他的名字,他就会在倒影中出现,把你杀死”引发的故事。
糖魔怪客(港)/糖果人4k Candyman.2021.2160p.WEB-DL.x265.10bit.HDR.DDP5.1-4k电影信息
  1. Video
  2. ID : 1
  3. Format : HEVC
  4. Format/Info : High Efficiency Video Coding
  5. Format profile : Main 10@L5@High
  6. HDR format : SMPTE ST 2086, HDR10 compatible
  7. Codec ID : V_MPEGH/ISO/HEVC
  8. Duration : 1 h 31 min
  9. Bit rate : 14.4 Mb/s
  10. Width : 3 840 pixels
  11. Height : 1 606 pixels
  12. Display aspect ratio : 2.40:1
  13. Frame rate mode : Constant
  14. Frame rate : 23.976 FPS
  15. Color space : YUV
  16. Chroma subsampling : 4:2:0 (Type 2)
  17. Bit depth : 10 bits
  18. Bits/(Pixel*Frame) : 0.097
  19. Stream size : 9.14 GiB (96%)
  20. Default : Yes
  21. Forced : No
  22. Color range : Limited
  23. Color primaries : BT.2020
  24. Transfer characteristics : PQ
  25. Matrix coefficients : BT.2020 non-constant
  26. Mastering display color primaries : Display P3
  27. Mastering display luminance : min: 0.0050 cd/m2, max: 1000 cd/m2
  28. Maximum Content Light Level : 524 cd/m2
  29. Maximum Frame-Average Light Level : 256 cd/m2

  30. Audio
  31. ID : 2
  32. Format : E-AC-3
  33. Format/Info : Enhanced AC-3
  34. Commercial name : Dolby Digital Plus
  35. Codec ID : A_EAC3
  36. Duration : 1 h 31 min
  37. Bit rate mode : Constant
  38. Bit rate : 640 kb/s
  39. Channel(s) : 6 channels
  40. Channel layout : L R C LFE Ls Rs
  41. Sampling rate : 48.0 kHz
  42. Frame rate : 31.250 FPS (1536 SPF)
  43. Compression mode : Lossy
  44. Stream size : 417 MiB (4%)
  45. Language : English
  46. Service kind : Complete Main
  47. Default : Yes
  48. Forced : No

  49. Text #1
  50. ID : 3
  51. Format : UTF-8
  52. Codec ID : S_TEXT/UTF8
  53. Codec ID/Info : UTF-8 Plain Text
  54. Duration : 1 h 26 min
  55. Bit rate : 56 b/s
  56. Count of elements : 1255
  57. Stream size : 35.8 KiB (0%)
  58. Title : English [SDH]
  59. Language : English
  60. Default : Yes
  61. Forced : No

  62. Text #2
  63. ID : 4
  64. Format : UTF-8
  65. Codec ID : S_TEXT/UTF8
  66. Codec ID/Info : UTF-8 Plain Text
  67. Duration : 1 h 29 min
  68. Bit rate : 47 b/s
  69. Count of elements : 952
  70. Stream size : 31.1 KiB (0%)
  71. Title : French Canadian
  72. Language : French
  73. Default : No
  74. Forced : No

  75. Text #3
  76. ID : 5
  77. Format : UTF-8
  78. Codec ID : S_TEXT/UTF8
  79. Codec ID/Info : UTF-8 Plain Text
  80. Duration : 1 h 30 min
  81. Bit rate : 45 b/s
  82. Count of elements : 1039
  83. Stream size : 30.2 KiB (0%)
  84. Title : Spanish
  85. Language : Spanish
  86. Default : No
  87. Forced : No
复制代码

糖魔怪客(港)/糖果人4k Candyman.2021.2160p.WEB-DL.x265.10bit.HDR.DDP5.1-4k电影下载

糖果人4k Candyman.2021.2160p.WEB-DL.x265.10bit.HDR.DDP5.1【4k  HDR 2160p 9.55 GB 】
[Hao4k]糖果人4k Candyman.2021.2160p.WEB-DL.x265.10bit.HDR.DDP5.1-NOGRP.torrent (24.49 KB, 售价: 2 个K币)
回复

使用道具 举报

全部回复32

NekolLee 发表于 2021-9-16 14:22:30

NekolLee 2

2021-9-16 14:22:30

好阿~
回复 支持 反对

使用道具 举报

w346248099 发表于 2021-9-16 15:03:52

w346248099 3

2021-9-16 15:03:52

小的时候看老版还是租的碟片,谢谢楼主了!
回复 支持 反对

使用道具 举报

wxguo 发表于 2021-9-16 16:00:20

wxguo 4

2021-9-16 16:00:20

谢谢楼主分享!!
回复 支持 反对

使用道具 举报

Mathk 发表于 2021-9-16 16:20:02

Mathk 5

2021-9-16 16:20:02

Thanks  a  lots  ..................  !!!!
回复 支持 反对

使用道具 举报

bing983201 发表于 2021-9-16 16:21:54

bing983201 6

2021-9-16 16:21:54

谢谢楼主分享
回复 支持 反对

使用道具 举报

88030576 发表于 2021-9-16 16:25:03

88030576 7

2021-9-16 16:25:03

Thanks  a  lots !!!!
回复 支持 反对

使用道具 举报

lu0778 发表于 2021-9-16 17:22:04

lu0778 8

2021-9-16 17:22:04

谢谢分享
回复 支持 反对

使用道具 举报

bbgrnnji 发表于 2021-9-16 17:35:27

bbgrnnji 9

2021-9-16 17:35:27

糖果人感觉不错啊
回复 支持 反对

使用道具 举报

hanlei1202 发表于 2021-9-16 17:36:39

hanlei1202 10

2021-9-16 17:36:39

z终于等到了 不知道值不值得看呀!
回复 支持 反对

使用道具 举报

eugene681 发表于 2021-9-16 17:43:21

eugene681 11

2021-9-16 17:43:21

谢谢楼主分享
回复 支持 反对

使用道具 举报

kitor 发表于 2021-9-16 18:06:39

kitor 12

2021-9-16 18:06:39

终于有了,谢谢分享!
回复 支持 反对

使用道具 举报

yaow2006 发表于 2021-9-16 19:16:03

yaow2006 13

2021-9-16 19:16:03

万圣节快要到了吗?
回复 支持 反对

使用道具 举报

highrpmclub 发表于 2021-9-16 19:24:27

highrpmclub 14

2021-9-16 19:24:27

美国拍这类片子确实是有自己成熟的流程和套路
回复 支持 反对

使用道具 举报

dake258 发表于 2021-9-16 20:02:59

dake258 15

2021-9-16 20:02:59

不错,好喜欢恐怖片,支持
回复 支持 反对

使用道具 举报

slithpr 发表于 2021-9-16 21:07:53

slithpr 16

2021-9-16 21:07:53

好看吗 有没有人说说
回复 支持 反对

使用道具 举报

dg226 发表于 2021-9-16 21:38:59

dg226 17

2021-9-16 21:38:59

给力,这么快有4K了,谢谢分享!
回复 支持 反对

使用道具 举报

wcy451 发表于 2021-9-16 21:43:27

wcy451 18

2021-9-16 21:43:27

thanks very much.
回复 支持 反对

使用道具 举报

   发表回复

您需要登录后才可以回帖 登录 | 立即注册

返回列表 本版积分规则

  • 发布新帖

  • 客服/帮助

  • 手机APP

  • 返回顶部