微博 微信 手机APP

Hao4K影音

电视剧频道
电视剧封面:
电视剧名: 美国恐怖故事:双面 第十季4k
年  代: 2021  
国  家: 美国
类  别: 恐怖 惊悚 剧情 
语  言: 英语
字  幕: 英文原版
上映日期: 2021-08-25
文件格式: mkv    
视频效果: 4K(3840x2160)    
资源大小: 6.85 GB
片  长: -
导  演: 约翰·J·格雷
剧情简介: 《美国恐怖故事》新季《Double Feature》,直译为1950、1960年代美国影院常有的“两片连映”活动,这季顾名思义会包含两个故事,一个发生在海中,一个在沙里。演员方面有麦考利·卡尔金、凯雅·基伯等新加入,凯西·贝茨、莱丝莉·格罗斯曼、比莉·洛德、莎拉·保罗森、伊万·彼得斯、阿迪纳·波特、莉莉·拉贝、安吉莉卡·罗斯、芬·维特洛克回归。
美国恐怖故事:双面 第十季4k American.Horror.Story.S10E05.2160p.WEB.H265-4k美剧信息
  1. Video
  2. ID : 1
  3. Format : HEVC
  4. Format/Info : High Efficiency Video Coding
  5. Format profile : Main 10@L5.1@Main
  6. Codec ID : V_MPEGH/ISO/HEVC
  7. Duration : 1 h 1 min
  8. Bit rate : 15.3 Mb/s
  9. Width : 3 840 pixels
  10. Height : 2 160 pixels
  11. Display aspect ratio : 16:9
  12. Frame rate mode : Constant
  13. Frame rate : 23.976 (24000/1001) FPS
  14. Color space : YUV
  15. Chroma subsampling : 4:2:0
  16. Bit depth : 10 bits
  17. Bits/(Pixel*Frame) : 0.077
  18. Stream size : 6.60 GiB (96%)
  19. Default : Yes
  20. Forced : No

  21. Audio
  22. ID : 2
  23. Format : E-AC-3
  24. Format/Info : Enhanced AC-3
  25. Commercial name : Dolby Digital Plus
  26. Codec ID : A_EAC3
  27. Duration : 1 h 1 min
  28. Bit rate mode : Constant
  29. Bit rate : 256 kb/s
  30. Channel(s) : 6 channels
  31. Channel layout : L R C LFE Ls Rs
  32. Sampling rate : 48.0 kHz
  33. Frame rate : 31.250 FPS (1536 SPF)
  34. Compression mode : Lossy
  35. Delay relative to video : 20 ms
  36. Stream size : 113 MiB (2%)
  37. Language : English
  38. Service kind : Complete Main
  39. Default : Yes
  40. Forced : No

  41. Text
  42. ID : 3
  43. Format : UTF-8
  44. Codec ID : S_TEXT/UTF8
  45. Codec ID/Info : UTF-8 Plain Text
  46. Title : English
  47. Language : English
  48. Default : No
  49. Forced : No
复制代码

美国恐怖故事:双面 第十季4k American.Horror.Story.S10E05.2160p.WEB.H265-4k美剧下载

美国恐怖故事:双面 第十季4k American.Horror.Story.S10.2160p.HULU.WEB-DL.DDP5.1.x265【49.40GB】
[Hao4k]美国恐怖故事:双面 第十季4k American.Horror.Story.S10.2160p.HULU.WEB-DL.DDP5.1.x265-MIXED.torrent (63.14 KB)
回复

使用道具 举报

全部回复6

heijin1016 发表于 2021-9-17 12:11:35

heijin1016 2

2021-9-17 12:11:35

老兄,有没有1-4
回复 支持 反对

使用道具 举报

大红色 发表于 2021-9-17 17:43:52

大红色 3

2021-9-17 17:43:52


会更新的,你可以关注
回复 支持 反对

使用道具 举报

AFriends 发表于 2021-9-18 22:13:04

AFriends 4

2021-9-18 22:13:04

不知不觉到了新的一季。这一季感觉 更加大胆了。
回复 支持 反对

使用道具 举报

13840347629 发表于 2021-9-21 22:42:48

13840347629 5

2021-9-21 22:42:48

下不来呀
回复 支持 反对

使用道具 举报

wavebosky 发表于 2021-9-25 11:58:12

wavebosky 6

2021-9-25 11:58:12

当时看到第五季就没追了,先收藏了。谢谢楼主
回复 支持 反对

使用道具 举报

heijin1016 发表于 2021-10-8 13:22:55

heijin1016 7

2021-10-8 13:22:55

版主,1-4还是没有啊
回复 支持 反对

使用道具 举报

   发表回复

您需要登录后才可以回帖 登录 | 立即注册

返回列表 本版积分规则

  • 发布新帖

  • 客服/帮助

  • 手机APP

  • 返回顶部