微博 微信 手机APP

Hao4K影音

电影频道
电影封面:
片  名: 最佳销售员4K
电影分类: 剧情 喜剧 
国  家: 美国 加拿大 
年  代: 2021年
分 辨 率: 4K(3840x2160)
电影格式: MKV|REMUX 
画质标准: HDR SDR 
音质编码: Dolby Digital Plus Audio 
电影声道: 5.1声道 
帧数/FPS: 23.976 帧
电影语言: 英文原版 
资源大小: 17.59 GB
导  演: 丽娜·罗斯勒
豆瓣评分:
中文字幕: /thread-62109-1-1.html
剧情简介: 故事改编自安东尼·格里科(Anthony Grieco)原著剧本,讲述为了挽救一家精品出版社,一位雄心勃勃的年轻编辑(普拉扎饰)与一位作家(凯恩饰)上演了一场狂野的售书之旅。而这名作家一直只是想与苏格兰威士忌、雪茄与虎斑猫过自己的日子。
最佳销售员4K.Best.Sellers.2021.2160p.WEB-DL.x265.10bit.HDR.DD5.1-4k电影信息
  1. Video
  2. ID : 1
  3. Format : HEVC
  4. Format/Info : High Efficiency Video Coding
  5. Format profile : Main 10@L5@High
  6. HDR format : SMPTE ST 2086, HDR10 compatible
  7. Codec ID : V_MPEGH/ISO/HEVC
  8. Duration : 1 h 42 min
  9. Bit rate : 24.2 Mb/s
  10. Width : 3 836 pixels
  11. Height : 1 600 pixels
  12. Display aspect ratio : 2.40:1
  13. Original display aspect ratio : 2.40:1
  14. Frame rate mode : Constant
  15. Frame rate : 23.976 FPS
  16. Color space : YUV
  17. Chroma subsampling : 4:2:0 (Type 2)
  18. Bit depth : 10 bits
  19. Bits/(Pixel*Frame) : 0.165
  20. Stream size : 17.3 GiB (98%)
  21. Language : English
  22. Default : Yes
  23. Forced : No
  24. Color range : Limited
  25. Color primaries : BT.2020
  26. Transfer characteristics : PQ
  27. Matrix coefficients : BT.2020 non-constant
  28. Mastering display color primaries : Display P3
  29. Mastering display luminance : min: 0.0001 cd/m2, max: 1000 cd/m2
  30. Maximum Content Light Level : 1792 cd/m2
  31. Maximum Frame-Average Light Level : 228 cd/m2

  32. Audio
  33. ID : 2
  34. Format : AC-3
  35. Format/Info : Audio Coding 3
  36. Commercial name : Dolby Digital
  37. Codec ID : A_AC3
  38. Duration : 1 h 42 min
  39. Bit rate mode : Constant
  40. Bit rate : 384 kb/s
  41. Channel(s) : 6 channels
  42. Channel layout : L R C LFE Ls Rs
  43. Sampling rate : 48.0 kHz
  44. Frame rate : 31.250 FPS (1536 SPF)
  45. Compression mode : Lossy
  46. Stream size : 281 MiB (2%)
  47. Title : English
  48. Language : English
  49. Service kind : Complete Main
  50. Default : Yes
  51. Forced : No

  52. Text
  53. ID : 3
  54. Format : UTF-8
  55. Codec ID : S_TEXT/UTF8
  56. Codec ID/Info : UTF-8 Plain Text
  57. Duration : 1 h 34 min
  58. Bit rate : 59 b/s
  59. Count of elements : 1490
  60. Stream size : 41.6 KiB (0%)
  61. Language : English
  62. Default : Yes
  63. Forced : No
复制代码

最佳销售员4K.Best.Sellers.2021.2160p.WEB-DL.x265.10bit.HDR.DD5.1-4K电影下载

最佳销售员4K.Best.Sellers.2021.2160p.WEB-DL.x265.10bit.HDR.DD5.1 【4K HDR 17.59 GB】
[Hao4K]最佳销售员4K.Best.Sellers.2021.2160p.WEB-DL.x265.10bit.HDR.DD5.1-NOGRP.torrent (22.62 KB, 售价: 2 个K币)
回复

使用道具 举报

全部回复3

yunzhouren 发表于 2021-9-18 19:23:06

yunzhouren 2

2021-9-18 19:23:06

没有中文字幕
回复 支持 反对

使用道具 举报

pup 发表于 2021-9-19 20:53:10

pup 3

2021-9-19 20:53:10

谢谢楼主,辛苦了
回复 支持 反对

使用道具 举报

hdtvguy 发表于 2021-9-20 08:25:46

hdtvguy 4

2021-9-20 08:25:46

最佳销售员
回复 支持 反对

使用道具 举报

   发表回复

您需要登录后才可以回帖 登录 | 立即注册

返回列表 本版积分规则

  • 发布新帖

  • 客服/帮助

  • 手机APP

  • 返回顶部