微博 微信

Hao4K影音

电影频道
电影封面:
片  名: 幽灵之国的囚徒4K
电影分类: 动作 恐怖 惊悚 
国  家: 美国 日本 
年  代: 2021年
分 辨 率: 4K(3840x2160)
电影格式: MKV|REMUX 
画质标准: HDR SDR 
音质编码: Dolby Digital Plus Audio 
电影声道: 5.1声道 
帧数/FPS: 23.976 帧
电影语言: 英文原版 
资源大小: 17.82 GB
导  演: 园子温
豆瓣评分: 4.3 分
中文字幕: -
剧情简介: 故事讲述一名被绑架的女孩([波多拉饰])消失在了黑暗超自然宇宙中,臭名昭著的罪犯英雄(凯奇饰)被派去解救她。他们必须打破束缚他们的邪恶诅咒才能逃避统治鬼域的神秘幽灵。
鬼域的囚徒 / 鬼域之囚/幽灵之国的囚徒4K.Prisoners.of.the.Ghostland.2021.2160p.WEB-DL.x265.10bit.HDR.DD5.1-4k电影信息
  1. Video
  2. ID : 1
  3. Format : HEVC
  4. Format/Info : High Efficiency Video Coding
  5. Format profile : Main 10@L5@High
  6. HDR format : SMPTE ST 2086, HDR10 compatible
  7. Codec ID : V_MPEGH/ISO/HEVC
  8. Duration : 1 h 42 min
  9. Bit rate : 24.5 Mb/s
  10. Width : 3 832 pixels
  11. Height : 1 592 pixels
  12. Display aspect ratio : 2.40:1
  13. Frame rate mode : Constant
  14. Frame rate : 23.976 FPS
  15. Color space : YUV
  16. Chroma subsampling : 4:2:0 (Type 2)
  17. Bit depth : 10 bits
  18. Bits/(Pixel*Frame) : 0.167
  19. Stream size : 17.5 GiB (98%)
  20. Language : English
  21. Default : Yes
  22. Forced : No
  23. Color range : Limited
  24. Color primaries : BT.2020
  25. Transfer characteristics : PQ
  26. Matrix coefficients : BT.2020 non-constant
  27. Mastering display color primaries : Display P3
  28. Mastering display luminance : min: 0.0001 cd/m2, max: 1000 cd/m2
  29. Maximum Content Light Level : 1017 cd/m2
  30. Maximum Frame-Average Light Level : 398 cd/m2

  31. Audio
  32. ID : 2
  33. Format : AC-3
  34. Format/Info : Audio Coding 3
  35. Commercial name : Dolby Digital
  36. Codec ID : A_AC3
  37. Duration : 1 h 42 min
  38. Bit rate mode : Constant
  39. Bit rate : 384 kb/s
  40. Channel(s) : 6 channels
  41. Channel layout : L R C LFE Ls Rs
  42. Sampling rate : 48.0 kHz
  43. Frame rate : 31.250 FPS (1536 SPF)
  44. Compression mode : Lossy
  45. Stream size : 282 MiB (2%)
  46. Title : English
  47. Language : English
  48. Service kind : Complete Main
  49. Default : No
  50. Forced : No

  51. Text
  52. ID : 3
  53. Format : UTF-8
  54. Codec ID : S_TEXT/UTF8
  55. Codec ID/Info : UTF-8 Plain Text
  56. Duration : 1 h 35 min
  57. Bit rate : 22 b/s
  58. Count of elements : 715
  59. Stream size : 16.0 KiB (0%)
  60. Language : English
  61. Default : Yes
  62. Forced : No
复制代码

鬼域的囚徒 / 鬼域之囚/幽灵之国的囚徒4K.Prisoners.of.the.Ghostland.2021.2160p.WEB-DL.x265.10bit.HDR.DD5.1-4K电影下载

幽灵之国的囚徒4K.Prisoners.of.the.Ghostland.2021.2160p.WEB-DL.x265.10bit.HDR.DD5.1【4K HDR 17.82 GB】
[Hao4K]幽灵之国的囚徒4K.Prisoners.of.the.Ghostland.2021.2160p.WEB-DL.x265.10bit..torrent (22.94 KB, 售价: 2 个K币)
回复

使用道具 举报

全部回复32

cleverking 发表于 2021-9-17 17:46:23

cleverking 2

2021-9-17 17:46:23

园子温是谁
回复 支持 1 反对 0

使用道具 举报

LAOPENG 发表于 2021-9-17 18:20:39

LAOPENG 3

2021-9-17 18:20:39

喜欢凯奇的片子
回复 支持 反对

使用道具 举报

liyun80000 发表于 2021-9-17 21:10:34

liyun80000 4

2021-9-17 21:10:34

谢谢楼主及时分享
回复 支持 反对

使用道具 举报

justinfeng11 发表于 2021-9-17 22:13:08

justinfeng11 5

2021-9-17 22:13:08

凯奇在烂片路上越走越远
回复 支持 反对

使用道具 举报

aiwanzi 发表于 2021-9-17 22:20:26

aiwanzi 6

2021-9-17 22:20:26

感谢分享 真是太快了   ,.
回复 支持 反对

使用道具 举报

aiwanzi 发表于 2021-9-17 22:21:09

aiwanzi 7

2021-9-17 22:21:09

justinfeng11 发表于 2021-9-17 22:13
凯奇在烂片路上越走越远

这部评价貌似不错....
回复 支持 反对

使用道具 举报

liyun80000 发表于 2021-9-17 22:46:16

liyun80000 8

2021-9-17 22:46:16

分辨率怎么是3832*1592
回复 支持 反对

使用道具 举报

Caspian2021 发表于 2021-9-17 22:57:13

Caspian2021 9

2021-9-17 22:57:13

这个评分。。。
回复 支持 反对

使用道具 举报

88774515 发表于 2021-9-17 23:12:57

88774515 10

2021-9-17 23:12:57

不知道怎么样 这片
回复 支持 反对

使用道具 举报

zerro 发表于 2021-9-18 10:04:50

zerro 11

2021-9-18 10:04:50

威利斯、李维斯、尼古拉斯,我为烂片带盐,我骄傲!
回复 支持 1 反对 0

使用道具 举报

welsonwei 发表于 2021-9-18 10:27:04

welsonwei 12

2021-9-18 10:27:04

影片都是绿色横条雪花,有人知道是什么原因吗?
回复 支持 反对

使用道具 举报

sailorkeke 发表于 2021-9-18 12:09:04

sailorkeke 13

2021-9-18 12:09:04

多谢分享
回复 支持 反对

使用道具 举报

xintata 发表于 2021-9-18 12:37:19

xintata 14

2021-9-18 12:37:19

字幕呢
回复 支持 反对

使用道具 举报

419720334 发表于 2021-9-18 13:45:00

419720334 15

2021-9-18 13:45:00

k币怎么增加
回复 支持 反对

使用道具 举报

otherboy 发表于 2021-9-18 14:33:10

otherboy 16

2021-9-18 14:33:10

貌似不错哦 谢谢分享
回复 支持 反对

使用道具 举报

北斗星bdx 发表于 2021-9-18 18:44:57

北斗星bdx 17

2021-9-18 18:44:57

有无中文字幕?
回复 支持 反对

使用道具 举报

jlspytm 发表于 2021-9-19 09:26:46 Hao4K手机版

jlspytm 18

2021-9-19 09:26:46

看到园子温让我想起了温子仁,准备下载看看怎么样。
回复 支持 反对

使用道具 举报

   发表回复

您需要登录后才可以回帖 登录 | 立即注册

返回列表 本版积分规则

  • 在线客服

  • 返回顶部