微博 微信

Hao4K影音

电视剧频道
电视剧封面:
电视剧名: 早间新闻 第二季4k
年  代: 2021  
国  家: 美国
类  别: 剧情 
语  言: 英语
字  幕: 英文原版
上映日期: 2021-09-17(
文件格式: mkv    
视频效果: 4K(3840x2160)    
资源大小: 9.48 GB
片  长: 60 分钟
导  演: 米密·莱德
剧情简介:  Picking up after the explosive events of Season 1, this season finds the Morning Show team emerging from the wreckage of Alex (Jennifer Aniston) and Bradley’s (Reese Witherspoon) actions, to a new UBA and a world in flux, where identity is everything, and the chasm between who we present and who we really are comes into play.
  Along with Aniston and Witherspoon, the returning cast for Season 2 includes Steve Carell, Billy Crudup, Mark Duplass, Nestor Carbonell, Karen Pittman, Bel Powley, Desean Terry, Janina Gavankar, Tom Irwin, and Marcia Gay Harden. New stars joining this season are Greta Lee, Ruairi O’Connor, Hasan Minhaj, Cybil Richards, Tara Karsian, Valeria Golino, and Julianna Margulies.
早间新闻 第二季4kThe.Morning.Show.S02E01.REPACK.HDR.2160p.WEB.H264-4k美剧信息
  1. Video
  2. ID : 1
  3. Format : HEVC
  4. Format/Info : High Efficiency Video Coding
  5. Format profile : Main 10@L5@High
  6. HDR format : SMPTE ST 2086, HDR10 compatible
  7. Codec ID : V_MPEGH/ISO/HEVC
  8. Duration : 53 min 8 s
  9. Bit rate : 24.8 Mb/s
  10. Width : 3 840 pixels
  11. Height : 1 920 pixels
  12. Display aspect ratio : 2.000
  13. Frame rate mode : Constant
  14. Frame rate : 23.976 FPS
  15. Color space : YUV
  16. Chroma subsampling : 4:2:0 (Type 2)
  17. Bit depth : 10 bits
  18. Bits/(Pixel*Frame) : 0.140
  19. Stream size : 9.20 GiB (97%)
  20. Language : English
  21. Default : Yes
  22. Forced : No
  23. Color range : Limited
  24. Color primaries : BT.2020
  25. Transfer characteristics : PQ
  26. Matrix coefficients : BT.2020 non-constant
  27. Mastering display color primaries : Display P3
  28. Mastering display luminance : min: 0.0050 cd/m2, max: 1000 cd/m2
  29. Maximum Content Light Level : 735 cd/m2
  30. Maximum Frame-Average Light Level : 319 cd/m2

  31. Audio
  32. ID : 2
  33. Format : E-AC-3 JOC
  34. Format/Info : Enhanced AC-3 with Joint Object Coding
  35. Commercial name : Dolby Digital Plus with Dolby Atmos
  36. Codec ID : A_EAC3
  37. Duration : 53 min 8 s
  38. Bit rate mode : Constant
  39. Bit rate : 768 kb/s
  40. Channel(s) : 6 channels
  41. Channel layout : L R C LFE Ls Rs
  42. Sampling rate : 48.0 kHz
  43. Frame rate : 31.250 FPS (1536 SPF)
  44. Compression mode : Lossy
  45. Stream size : 292 MiB (3%)
  46. Language : English
  47. Service kind : Complete Main
  48. Default : Yes
  49. Forced : No
  50. Complexity index : 16
  51. Number of dynamic objects : 15
  52. Bed channel count : 1 channel
  53. Bed channel configuration : LFE

  54. Text #1
  55. ID : 3
  56. Format : UTF-8
  57. Codec ID : S_TEXT/UTF8
  58. Codec ID/Info : UTF-8 Plain Text
  59. Duration : 52 min 55 s
  60. Bit rate : 123 b/s
  61. Count of elements : 890
  62. Stream size : 48.1 KiB (0%)
  63. Title : العربية
  64. Language : Arabic
  65. Default : No
  66. Forced : No

  67. Text #2
  68. ID : 4
  69. Format : UTF-8
  70. Codec ID : S_TEXT/UTF8
  71. Codec ID/Info : UTF-8 Plain Text
  72. Duration : 52 min 55 s
  73. Bit rate : 121 b/s
  74. Count of elements : 781
  75. Stream size : 46.9 KiB (0%)
  76. Title : български
  77. Language : Bulgarian
  78. Default : No
  79. Forced : No

  80. Text #3
  81. ID : 5
  82. Format : UTF-8
  83. Codec ID : S_TEXT/UTF8
  84. Codec ID/Info : UTF-8 Plain Text
  85. Duration : 52 min 55 s
  86. Bit rate : 79 b/s
  87. Count of elements : 892
  88. Stream size : 30.6 KiB (0%)
  89. Title : 中文(简体)
  90. Language : Chinese
  91. Default : No
  92. Forced : No

  93. Text #4
  94. ID : 6
  95. Format : UTF-8
  96. Codec ID : S_TEXT/UTF8
  97. Codec ID/Info : UTF-8 Plain Text
  98. Duration : 52 min 55 s
  99. Bit rate : 78 b/s
  100. Count of elements : 893
  101. Stream size : 30.4 KiB (0%)
  102. Title : 中文(繁體)
  103. Language : Chinese
  104. Default : No
  105. Forced : No

  106. Text #5
  107. ID : 7
  108. Format : UTF-8
  109. Codec ID : S_TEXT/UTF8
  110. Codec ID/Info : UTF-8 Plain Text
  111. Duration : 52 min 55 s
  112. Bit rate : 79 b/s
  113. Count of elements : 844
  114. Stream size : 30.8 KiB (0%)
  115. Title : Čeština
  116. Language : Czech
  117. Default : No
  118. Forced : No

  119. Text #6
  120. ID : 8
  121. Format : UTF-8
  122. Codec ID : S_TEXT/UTF8
  123. Codec ID/Info : UTF-8 Plain Text
  124. Duration : 52 min 55 s
  125. Bit rate : 72 b/s
  126. Count of elements : 860
  127. Stream size : 28.1 KiB (0%)
  128. Title : dansk
  129. Language : Danish
  130. Default : No
  131. Forced : No

  132. Text #7
  133. ID : 9
  134. Format : UTF-8
  135. Codec ID : S_TEXT/UTF8
  136. Codec ID/Info : UTF-8 Plain Text
  137. Duration : 52 min 55 s
  138. Bit rate : 90 b/s
  139. Count of elements : 752
  140. Stream size : 35.1 KiB (0%)
  141. Title : Deutsch
  142. Language : German
  143. Default : No
  144. Forced : No
复制代码

早间新闻 第二季4kThe.Morning.Show.S02E01.REPACK.HDR.2160p.WEB.H264-4k美剧下载

早间新闻 第二季4k The.Morning.Show.S02E01.REPACK.HDR.2160p.WEB.H264【9.48 GB】
[Hao4k]早间新闻 第二季4k The.Morning.Show.S02E01.REPACK.HDR.2160p.WEB.H264-PECUL.torrent (24.35 KB)
回复

使用道具 举报

全部回复2

不要一挑五 发表于 2021-10-9 18:07:05

不要一挑五 2

2021-10-9 18:07:05

有字幕吗
回复 支持 反对

使用道具 举报

snipereyes 发表于 6 天前

snipereyes 3

6 天前

好剧ing~~~~第一季看完一直期待哇~~~~~瑞秋继续,哈哈
回复 支持 反对

使用道具 举报

   发表回复

您需要登录后才可以回帖 登录 | 立即注册

返回列表 本版积分规则

  • 在线客服

  • 返回顶部