微博 微信 手机APP

Hao4K影音

电影频道
电影封面:
片  名: Adams.Package
电影分类: 喜剧 
国  家: 美国 
年  代: 2021年
分 辨 率: 4K(3840x2160)
电影格式: MKV|REMUX 
画质标准: SDR 
音质编码: 其他AAC 
电影声道: 2.0声道 
帧数/FPS: 24.000 帧
电影语言: 英文原版 
资源大小: 6.94 GB
导  演: Andrew Chiaramonte
豆瓣评分:
中文字幕: -
剧情简介: 亚当是一个过着好莱坞大块头生活的外星人,只是他不知道。他作为一名男模赚取了丰厚的收入,而且他被一群美丽的女人所吸引,其中包括一个在他的公寓里出没的性感鬼魂。在他地下室发现的绝密 UFO 文件使他处于危险之中。影子政府的工作人员希望他死,他的前妻也是为了保险金。在好莱坞作为外星模特生活肯定有问题。
Adams.Package.2021.2160p.WEB-DL.x265.10bit.SDR.AAC2.0-4k电影信息
  1. Video
  2. ID : 1
  3. Format : HEVC
  4. Format/Info : High Efficiency Video Coding
  5. Format profile : Main 10@L5@High
  6. Codec ID : V_MPEGH/ISO/HEVC
  7. Duration : 1 h 21 min
  8. Bit rate : 12.0 Mb/s
  9. Width : 3 836 pixels
  10. Height : 2 156 pixels
  11. Display aspect ratio : 16:9
  12. Frame rate mode : Constant
  13. Frame rate : 24.000 FPS
  14. Color space : YUV
  15. Chroma subsampling : 4:2:0
  16. Bit depth : 10 bits
  17. Bits/(Pixel*Frame) : 0.061
  18. Stream size : 6.85 GiB (99%)
  19. Default : Yes
  20. Forced : No
  21. Color range : Limited
  22. Color primaries : BT.709
  23. Transfer characteristics : BT.709
  24. Matrix coefficients : BT.709

  25. Audio
  26. ID : 2
  27. Format : AAC LC
  28. Format/Info : Advanced Audio Codec Low Complexity
  29. Codec ID : A_AAC-2
  30. Duration : 1 h 21 min
  31. Bit rate : 153 kb/s
  32. Channel(s) : 2 channels
  33. Channel layout : L R
  34. Sampling rate : 48.0 kHz
  35. Frame rate : 46.875 FPS (1024 SPF)
  36. Compression mode : Lossy
  37. Stream size : 89.1 MiB (1%)
  38. Title : English
  39. Language : English
  40. Default : No
  41. Forced : No

  42. Text
  43. ID : 3
  44. Format : UTF-8
  45. Codec ID : S_TEXT/UTF8
  46. Codec ID/Info : UTF-8 Plain Text
  47. Duration : 1 h 19 min
  48. Bit rate : 64 b/s
  49. Count of elements : 1048
  50. Stream size : 37.5 KiB (0%)
  51. Language : English
  52. Default : Yes
  53. Forced : No
复制代码


Adams.Package.2021.2160p.WEB-DL.x265.10bit.SDR.AAC2.0-4k电影下载

Adams.Package.2021.2160p.WEB-DL.x265.10bit.SDR.AAC2.0【4k SDR 6.94 GB】
Adams.Package.2021.2160p.WEB-DL.x265.10bit.SDR.AAC2.0-NOGRP.torrent (18 KB)
回复

使用道具 举报

全部回复12

dannaff 发表于 2021-9-18 09:55:49

dannaff 2

2021-9-18 09:55:49

4K电影只有不到7个G吗?
回复 支持 反对

使用道具 举报

bg8uj 发表于 2021-9-18 10:26:56

bg8uj 3

2021-9-18 10:26:56

同问:4K电影只有不到7个G?
回复 支持 反对

使用道具 举报

liyun80000 发表于 2021-9-18 20:42:36

liyun80000 4

2021-9-18 20:42:36

谢谢楼主分享
回复 支持 反对

使用道具 举报

pipi2021 发表于 2021-9-18 21:15:31

pipi2021 5

2021-9-18 21:15:31

假4K吧?
回复 支持 反对

使用道具 举报

dengke118 发表于 2021-9-19 09:24:39

dengke118 6

2021-9-19 09:24:39

谢谢分享,真的很辛苦!
回复 支持 反对

使用道具 举报

billy4158 发表于 2021-9-19 21:42:02

billy4158 7

2021-9-19 21:42:02


回帖得K币。
回复 支持 反对

使用道具 举报

dahai11hao 发表于 2021-9-20 08:12:26

dahai11hao 8

2021-9-20 08:12:26

回帖得K币
回复 支持 反对

使用道具 举报

dahai11hao 发表于 2021-9-20 08:12:42

dahai11hao 9

2021-9-20 08:12:42

回帖得K币。
回复 支持 反对

使用道具 举报

rock_wolf 发表于 2021-9-20 09:10:17

rock_wolf 10

2021-9-20 09:10:17

4K电影只有不到7个G?还没字幕?
回复 支持 反对

使用道具 举报

sgphoto 发表于 2021-9-20 20:21:14 Hao4K手机版

sgphoto 11

2021-9-20 20:21:14

是web download,是SDR.没有说是蓝光吧
回复 支持 反对

使用道具 举报

1062110184 发表于 2021-9-20 21:30:42

1062110184 12

2021-9-20 21:30:42

4K 是MP4的格式么?
回复 支持 反对

使用道具 举报

4096 发表于 2021-9-20 23:00:36 Hao4K手机版

4096 13

2021-9-20 23:00:36

谢谢分享!
回复 支持 反对

使用道具 举报

   发表回复

您需要登录后才可以回帖 登录 | 立即注册

返回列表 本版积分规则

  • 发布新帖

  • 客服/帮助

  • 手机APP

  • 返回顶部