微博 微信

Hao4K影音

电视剧频道
电视剧封面:
电视剧名: 回到椽子上4k
年  代: 2021  
国  家: 其他
类  别: 剧情 爱情 家庭 
语  言: 英语
字  幕: 英文原版
上映日期: 2021-09-17
文件格式: mkv    
视频效果: 4K(3840x2160)    
资源大小: 21.39 GB
片  长: -
导  演: Lynne Hegarty / Catherine Millar / 杰瑞米·西姆斯
剧情简介:  我们上次见到拉夫特一家已经六年了。戴夫和朱莉带着最小的女儿鲁比在乡下开创了新的生活,而年长的孩子们面临着新的挑战,爷爷泰德也在努力寻找自己的位置。由于戴夫享受着新获得的自由,朱莉必须协调好自己对家庭的责任。
回到椽子上4k Back.To.The.Rafters.S01.2160p.AMZN.WEB-DL.x265.8bit.SDR.DDP5.1美剧信息
  1. Video
  2. ID : 1
  3. Format : HEVC
  4. Format/Info : High Efficiency Video Coding
  5. Format profile : Main@L5@Main
  6. Codec ID : V_MPEGH/ISO/HEVC
  7. Duration : 46 min 17 s
  8. Bit rate : 12.2 Mb/s
  9. Width : 3 840 pixels
  10. Height : 2 160 pixels
  11. Display aspect ratio : 16:9
  12. Frame rate mode : Constant
  13. Frame rate : 25.000 FPS
  14. Standard : NTSC
  15. Color space : YUV
  16. Chroma subsampling : 4:2:0
  17. Bit depth : 8 bits
  18. Bits/(Pixel*Frame) : 0.059
  19. Stream size : 3.95 GiB (95%)
  20. Writing library : x265 2.9_elemental+1-9e0607aa5b6f:[Linux][GCC 4.8.5][64 bit] 8bit+10bit+12bit
  21. Encoding settings : cpuid=1111039 / frame-threads=2 / wpp / no-pmode / no-pme / psnr / ssim / log-level=2 / csv / csv-log-level=2 / input-csp=1 / input-res=3840x2160 / interlace=0 / total-frames=0 / level-idc=50 / high-tier=1 / uhd-bd=0 / ref=5 / no-allow-non-conformance / no-repeat-headers / annexb / no-aud / no-hrd / info / hash=0 / no-temporal-layers / no-open-gop / min-keyint=64 / keyint=125 / gop-lookahead=0 / bframes=8 / b-adapt=2 / b-pyramid / bframe-bias=0 / rc-lookahead=125 / lookahead-slices=4 / scenecut=0 / radl=0 / no-intra-refresh / ctu=64 / min-cu-size=8 / rect / amp / max-tu-size=32 / tu-inter-depth=4 / tu-intra-depth=4 / limit-tu=4 / rdoq-level=2 / dynamic-rd=0.00 / no-ssim-rd / signhide / tskip / nr-intra=100 / nr-inter=600 / no-constrained-intra / strong-intra-smoothing / max-merge=3 / limit-refs=3 / limit-modes / me=3 / subme=3 / merange=57 / temporal-mvp / weightp / weightb / no-analyze-src-pics / deblock=0:0 / no-sao / no-sao-non-deblock / rd=4 / no-early-skip / no-rskip / no-fast-intra / tskip-fast / no-cu-lossless / b-intra / no-splitrd-skip / rdpenalty=0 / psy-rd=4.00 / psy-rdoq=10.00 / no-rd-refine / no-lossless / cbqpoffs=0 / crqpoffs=0 / rc=crf / crf=25.0 / qcomp=0.60 / qpstep=1 / stats-write=0 / stats-read=0 / vbv-maxrate=15000 / vbv-bufsize=20000 / vbv-init=0.9 / crf-max=0.0 / crf-min=0.0 / ipratio=1.10 / pbratio=1.00 / aq-mode=0 / aq-strength=1.50 / no-cutree / zone-count=0 / no-strict-cbr / qg-size=32 / rc-grain / qpmax=69 / qpmin=0 / const-vbv / sar=1 / overscan=0 / videoformat=2 / range=0 / colorprim=1 / transfer=1 / colormatrix=1 / chromaloc=0 / display-window=0 / max-cll=0,0 / min-luma=0 / max-luma=255 / log2-max-poc-lsb=8 / vui-timing-info / vui-hrd-info / slices=1 / opt-qp-pps / no-opt-ref-list-length-pps / no-multi-pass-opt-rps / scenecut-bias=0.05 / no-opt-cu-delta-qp / no-aq-motion / no-hdr / no-hdr-opt / no-dhdr10-opt / no-idr-recovery-sei / analysis-reuse-level=5 / scale-factor=0 / refine-intra=0 / refine-inter=0 / refine-mv=0 / no-limit-sao / ctu-info=0 / no-lowpass-dct / refine-mv-type=0 / copy-pic=1 / max-ausize-factor=1.0 / no-dynamic-refine / no-single-sei
  22. Default : Yes
  23. Forced : No
  24. Color range : Limited
  25. Color primaries : BT.709
  26. Transfer characteristics : BT.709
  27. Matrix coefficients : BT.709

  28. Audio
  29. ID : 2
  30. Format : E-AC-3
  31. Format/Info : Enhanced AC-3
  32. Commercial name : Dolby Digital Plus
  33. Codec ID : A_EAC3
  34. Duration : 46 min 17 s
  35. Bit rate mode : Constant
  36. Bit rate : 640 kb/s
  37. Channel(s) : 6 channels
  38. Channel layout : L R C LFE Ls Rs
  39. Sampling rate : 48.0 kHz
  40. Frame rate : 31.250 FPS (1536 SPF)
  41. Compression mode : Lossy
  42. Stream size : 212 MiB (5%)
  43. Title : English
  44. Language : English
  45. Service kind : Complete Main
  46. Default : No
  47. Forced : No

  48. Text #1
  49. ID : 3
  50. Format : UTF-8
  51. Codec ID : S_TEXT/UTF8
  52. Codec ID/Info : UTF-8 Plain Text
  53. Duration : 45 min 28 s
  54. Bit rate : 76 b/s
  55. Count of elements : 874
  56. Stream size : 25.4 KiB (0%)
  57. Title : SDH
  58. Language : English
  59. Default : No
  60. Forced : No

  61. Text #2
  62. ID : 4
  63. Format : UTF-8
  64. Codec ID : S_TEXT/UTF8
  65. Codec ID/Info : UTF-8 Plain Text
  66. Duration : 46 min 3 s
  67. Bit rate : 69 b/s
  68. Count of elements : 811
  69. Stream size : 23.6 KiB (0%)
  70. Title : Latin America
  71. Language : Spanish
  72. Default : No
  73. Forced : No

  74. Text #3
  75. ID : 5
  76. Format : UTF-8
  77. Codec ID : S_TEXT/UTF8
  78. Codec ID/Info : UTF-8 Plain Text
  79. Duration : 46 min 3 s
  80. Bit rate : 70 b/s
  81. Count of elements : 812
  82. Stream size : 23.7 KiB (0%)
  83. Language : Spanish
  84. Default : No
  85. Forced : No

  86. Text #4
  87. ID : 6
  88. Format : UTF-8
  89. Codec ID : S_TEXT/UTF8
  90. Codec ID/Info : UTF-8 Plain Text
  91. Duration : 46 min 3 s
  92. Bit rate : 64 b/s
  93. Count of elements : 811
  94. Stream size : 21.8 KiB (0%)
  95. Title : Brazilian
  96. Language : Portuguese
  97. Default : No
  98. Forced : No

  99. Text #5
  100. ID : 7
  101. Format : UTF-8
  102. Codec ID : S_TEXT/UTF8
  103. Codec ID/Info : UTF-8 Plain Text
  104. Duration : 45 min 53 s
  105. Bit rate : 67 b/s
  106. Count of elements : 666
  107. Stream size : 22.9 KiB (0%)
  108. Language : German
  109. Default : No
  110. Forced : No

  111. Text #6
  112. ID : 8
  113. Format : UTF-8
  114. Codec ID : S_TEXT/UTF8
  115. Codec ID/Info : UTF-8 Plain Text
  116. Duration : 46 min 3 s
  117. Bit rate : 67 b/s
  118. Count of elements : 810
  119. Stream size : 22.7 KiB (0%)
  120. Language : French
  121. Default : No
  122. Forced : No

  123. Text #7
  124. ID : 9
  125. Format : UTF-8
  126. Codec ID : S_TEXT/UTF8
  127. Codec ID/Info : UTF-8 Plain Text
  128. Duration : 46 min 3 s
  129. Bit rate : 70 b/s
  130. Count of elements : 814
  131. Stream size : 23.9 KiB (0%)
  132. Title : Simplified
  133. Language : Chinese
  134. Default : No
  135. Forced : No

  136. Text #8
  137. ID : 10
  138. Format : UTF-8
  139. Codec ID : S_TEXT/UTF8
  140. Codec ID/Info : UTF-8 Plain Text
  141. Duration : 46 min 3 s
  142. Bit rate : 65 b/s
  143. Count of elements : 814
  144. Stream size : 22.1 KiB (0%)
  145. Title : Traditional
  146. Language : Chinese
  147. Default : No
  148. Forced : No

  149. Text #9
  150. ID : 11
  151. Format : UTF-8
  152. Codec ID : S_TEXT/UTF8
  153. Codec ID/Info : UTF-8 Plain Text
  154. Duration : 46 min 3 s
  155. Bit rate : 120 b/s
  156. Count of elements : 814
  157. Stream size : 40.5 KiB (0%)
  158. Language : Arabic
  159. Default : No
  160. Forced : No

  161. Text #10
  162. ID : 12
  163. Format : UTF-8
  164. Codec ID : S_TEXT/UTF8
  165. Codec ID/Info : UTF-8 Plain Text
  166. Duration : 46 min 3 s
  167. Bit rate : 70 b/s
  168. Count of elements : 812
  169. Stream size : 23.6 KiB (0%)
  170. Language : Czech
  171. Default : No
  172. Forced : No
复制代码

回到椽子上4k Back.To.The.Rafters.S01.2160p.AMZN.WEB-DL.x265.8bit.SDR.DDP5.1美剧下载

回到椽子上4k Back.To.The.Rafters.S01.2160p.AMZN.WEB-DL.x265.8bit.SDR.DDP5.1【4k SDR 21.39 GB】中文字幕
[Hao4k]回到椽子上4k Back.To.The.Rafters.S01.2160p.AMZN.WEB-DL.x265.8bit.SDR.DDP5.torrent (27.86 KB)
回复

使用道具 举报

   发表回复

您需要登录后才可以回帖 登录 | 立即注册

返回列表 本版积分规则

  • 在线客服

  • 返回顶部