微博 微信

Hao4K影音

电影频道
电影封面:
片  名: People.Just.Do.Nothing.Big.in.Japan
电影分类: 喜剧 
国  家: 英国 
年  代: 2020年
分 辨 率: 4K(3840x2160)
电影格式: MKV|REMUX 
画质标准: HDR SDR 
音质编码: Dolby Digital Audio 
电影声道: 5.1声道 
帧数/FPS: 23.976 帧
电影语言: 英文原版 
资源大小: 10.01 GB
导  演: Jack Clough
豆瓣评分: 7.2 分
中文字幕: -
剧情简介: Since the end of their pirate radio station, life has been quiet for the Kurupt FM boys, but everything is about to change. News reaches them that one of their songs has been used on a popular game show in Japan. They\'ve made it. Their music is reaching hundreds of thousands of people. It\'s finally time for them to enjoy the fame and fortune that they\'ve always known they deserved. Chabuddy G steps excitedly back into his management role as Grindah, Beats, Steves and Decoy begin their journey to international stardom - But is Japan really ready for Kurupt FM?
People.Just.Do.Nothing.Big.in.Japan.2021.2160p.WEB-DL.x265.10bit.HDR.DD5.1电影信息
  1. Video
  2. ID : 1
  3. Format : HEVC
  4. Format/Info : High Efficiency Video Coding
  5. Format profile : Main 10@L5@High
  6. HDR format : SMPTE ST 2086, HDR10 compatible
  7. Codec ID : V_MPEGH/ISO/HEVC
  8. Duration : 1 h 36 min
  9. Bit rate : 14.4 Mb/s
  10. Width : 3 832 pixels
  11. Height : 1 596 pixels
  12. Display aspect ratio : 2.40:1
  13. Frame rate mode : Constant
  14. Frame rate : 23.976 FPS
  15. Color space : YUV
  16. Chroma subsampling : 4:2:0 (Type 2)
  17. Bit depth : 10 bits
  18. Bits/(Pixel*Frame) : 0.098
  19. Stream size : 9.75 GiB (97%)
  20. Default : Yes
  21. Forced : No
  22. Color range : Limited
  23. Color primaries : BT.2020
  24. Transfer characteristics : PQ
  25. Matrix coefficients : BT.2020 non-constant
  26. Mastering display color primaries : Display P3
  27. Mastering display luminance : min: 0.0050 cd/m2, max: 1000 cd/m2
  28. Maximum Content Light Level : 1000 cd/m2
  29. Maximum Frame-Average Light Level : 43 cd/m2

  30. Audio
  31. ID : 2
  32. Format : AC-3
  33. Format/Info : Audio Coding 3
  34. Commercial name : Dolby Digital
  35. Codec ID : A_AC3
  36. Duration : 1 h 36 min
  37. Bit rate mode : Constant
  38. Bit rate : 384 kb/s
  39. Channel(s) : 6 channels
  40. Channel layout : L R C LFE Ls Rs
  41. Sampling rate : 48.0 kHz
  42. Frame rate : 31.250 FPS (1536 SPF)
  43. Compression mode : Lossy
  44. Stream size : 266 MiB (3%)
  45. Title : English
  46. Language : English
  47. Service kind : Complete Main
  48. Default : No
  49. Forced : No

  50. Text #1
  51. ID : 3
  52. Format : UTF-8
  53. Codec ID : S_TEXT/UTF8
  54. Codec ID/Info : UTF-8 Plain Text
  55. Duration : 1 h 1 min
  56. Bit rate : 1 b/s
  57. Count of elements : 16
  58. Stream size : 466 Bytes (0%)
  59. Title : FORCED
  60. Language : English
  61. Default : Yes
  62. Forced : Yes

  63. Text #2
  64. ID : 4
  65. Format : UTF-8
  66. Codec ID : S_TEXT/UTF8
  67. Codec ID/Info : UTF-8 Plain Text
  68. Duration : 1 h 35 min
  69. Bit rate : 109 b/s
  70. Count of elements : 2399
  71. Stream size : 76.9 KiB (0%)
  72. Language : English
  73. Default : No
  74. Forced : No

  75. Text #3
  76. ID : 5
  77. Format : UTF-8
  78. Codec ID : S_TEXT/UTF8
  79. Codec ID/Info : UTF-8 Plain Text
  80. Duration : 1 h 1 min
  81. Bit rate : 0 b/s
  82. Count of elements : 16
  83. Stream size : 457 Bytes (0%)
  84. Title : English [Forced]
  85. Language : English
  86. Default : No
  87. Forced : Yes
复制代码

People.Just.Do.Nothing.Big.in.Japan.2021.2160p.WEB-DL.x265.10bit.HDR.DD5.1电影下载

People.Just.Do.Nothing.Big.in.Japan.2021.2160p.WEB-DL.x265.10bit.HDR.DD5.1【10.01 GB】
People.Just.Do.Nothing.Big.in.Japan.2021.2160p.WEB-DL.x265.10bit.HDR.DD5.1-NOGRP.torrent (13.2 KB)
回复

使用道具 举报

全部回复3

313184872 发表于 2021-9-21 00:05:34

313184872 2

2021-9-21 00:05:34

谢谢分享
回复 支持 反对

使用道具 举报

devihhy 发表于 2021-9-21 07:24:36

devihhy 3

2021-9-21 07:24:36

咋翻译?在日本啥都不干?无所事事?
回复 支持 反对

使用道具 举报

laoxu_23 发表于 2021-9-22 15:25:21

laoxu_23 4

2021-9-22 15:25:21

devihhy 发表于 2021-9-21 07:24
咋翻译?在日本啥都不干?无所事事?

《日本人屁都不是》
回复 支持 反对

使用道具 举报

   发表回复

您需要登录后才可以回帖 登录 | 立即注册

返回列表 本版积分规则

  • 在线客服

  • 返回顶部