微博 微信

Hao4K影音

电影频道
电影封面:
片  名: 皮囊之下4k
电影分类: 科幻 恐怖 
国  家: 美国 英国 其他 
年  代: 2013年
分 辨 率: 4K(3840x2160)
电影格式: MKV|REMUX 
画质标准: HDR Dolby Vision 
音质编码: DTS-HD Master Audio 
电影声道: 5.1声道 
帧数/FPS: 23.976 帧
电影语言: 英文原版 
资源大小: 20.54 GB
导  演: 乔纳森·格雷泽
豆瓣评分: 6.3 分
中文字幕: /thread-61982-1-1.html
剧情简介:  不知从何时起,萧索的苏格兰街头出现了一个神秘女子(斯嘉丽·约翰逊 Scarlett Johansson 饰),她身着皮草,驾驶一辆汽车,不苟言笑的面庞隐约间弥散着摄人魅力。她时不时地与路边的男人搭讪,向他们问路,间或载着相中的男人同归。她走向黑暗的劲头,被欲望支配的男人们紧随其后,却全然未能觉察自己步入了怎样的深渊。男人有如飞蛾扑火,被抽取了骨血,只剩空空皮囊,薄如蝉翼。直到某个晚上,女人搭载了一个相貌极其丑陋的男子。他宛如怪物一般,自知丑陋而深深隐藏自己。女人如往常一样接纳了他,而从第二天起,似乎女人发现自己在悄悄发生着变化。她发现了这幅皮囊的可欣赏之处,享受作为女人的乐趣,却几乎忘记了本来的面目……
  本片根据米歇尔·法贝尔(Michel Faber)的小说改编。
皮下之慌(港) / 肌肤之侵(台)/皮囊之下4kUnder.the.Skin.2013.2160p.WEB-DL.DD5.1.DV.MP4.x265-4k电影信息
  1. Video
  2. ID : 1
  3. Format : HEVC
  4. Format/Info : High Efficiency Video Coding
  5. Format profile : Main 10@L5@High
  6. HDR format : SMPTE ST 2086, HDR10 compatible
  7. Codec ID : V_MPEGH/ISO/HEVC
  8. Duration : 1 h 48 min
  9. Bit rate : 23.6 Mb/s
  10. Width : 3 836 pixels
  11. Height : 2 112 pixels
  12. Display aspect ratio : 16:9
  13. Frame rate mode : Constant
  14. Frame rate : 23.976 FPS
  15. Color space : YUV
  16. Chroma subsampling : 4:2:0 (Type 2)
  17. Bit depth : 10 bits
  18. Bits/(Pixel*Frame) : 0.122
  19. Stream size : 17.9 GiB (87%)
  20. Default : Yes
  21. Forced : No
  22. Color range : Limited
  23. Color primaries : BT.2020
  24. Transfer characteristics : PQ
  25. Matrix coefficients : BT.2020 non-constant
  26. Mastering display color primaries : Display P3
  27. Mastering display luminance : min: 0.0050 cd/m2, max: 1000 cd/m2
  28. Maximum Content Light Level : 1335 cd/m2
  29. Maximum Frame-Average Light Level : 680 cd/m2

  30. Audio #1
  31. ID : 2
  32. Format : DTS XLL
  33. Format/Info : Digital Theater Systems
  34. Commercial name : DTS-HD Master Audio
  35. Codec ID : A_DTS
  36. Duration : 1 h 48 min
  37. Bit rate mode : Variable
  38. Bit rate : 3 150 kb/s
  39. Channel(s) : 6 channels
  40. Channel layout : C L R Ls Rs LFE
  41. Sampling rate : 48.0 kHz
  42. Frame rate : 93.750 FPS (512 SPF)
  43. Bit depth : 24 bits
  44. Compression mode : Lossless
  45. Delay relative to video : 5 ms
  46. Stream size : 2.38 GiB (12%)
  47. Title : DTS-HD MA 5.1
  48. Language : English
  49. Default : Yes
  50. Forced : No

  51. Audio #2
  52. ID : 3
  53. Format : AC-3
  54. Format/Info : Audio Coding 3
  55. Commercial name : Dolby Digital
  56. Codec ID : A_AC3
  57. Duration : 1 h 48 min
  58. Bit rate mode : Constant
  59. Bit rate : 384 kb/s
  60. Channel(s) : 6 channels
  61. Channel layout : L R C LFE Ls Rs
  62. Sampling rate : 48.0 kHz
  63. Frame rate : 31.250 FPS (1536 SPF)
  64. Compression mode : Lossy
  65. Stream size : 297 MiB (1%)
  66. Title : DD 5.1
  67. Language : English
  68. Service kind : Complete Main
  69. Default : No
  70. Forced : No

  71. Text #1
  72. ID : 4
  73. Format : UTF-8
  74. Codec ID : S_TEXT/UTF8
  75. Codec ID/Info : UTF-8 Plain Text
  76. Duration : 1 h 26 min
  77. Bit rate : 14 b/s
  78. Count of elements : 291
  79. Stream size : 9.21 KiB (0%)
  80. Language : English
  81. Default : Yes
  82. Forced : No

  83. Text #2
  84. ID : 5
  85. Format : UTF-8
  86. Codec ID : S_TEXT/UTF8
  87. Codec ID/Info : UTF-8 Plain Text
  88. Duration : 1 h 34 min
  89. Bit rate : 18 b/s
  90. Count of elements : 399
  91. Stream size : 12.6 KiB (0%)
  92. Title : SDH
  93. Language : English
  94. Default : No
  95. Forced : No

  96. Menu
  97. 00:00:00.000 : Chapter 1
  98. 00:09:00.000 : Chapter 2
  99. 00:22:46.000 : Chapter 3
  100. 00:31:55.000 : Chapter 4
  101. 00:42:16.000 : Chapter 5
  102. 00:50:21.000 : Chapter 6
  103. 00:59:55.000 : Chapter 7
  104. 01:07:36.000 : Chapter 8
  105. 01:18:57.000 : Chapter 9
  106. 01:26:45.000 : Chapter 10
  107. 01:33:15.000 : Chapter 11
  108. 01:42:21.000 : Chapter 12
复制代码


皮下之慌(港) / 肌肤之侵(台)/皮囊之下4kUnder.the.Skin.2013.2160p.WEB-DL.DD5.1.DV.MP4.x265-4k电影下载
皮囊之下4k Under.the.Skin.2013.2160p.WEB-DL.DD5.1.DV.MP4.x265【4k 杜比视界18.39 GB】
[Hao4k]皮囊之下4k Under.the.Skin.2013.2160p.WEB-DL.DD5.1.DV.MP4.x265-TEPES.torrent (23.63 KB, 售价: 2 个K币)
回复

使用道具 举报

全部回复31

1014139687 发表于 2021-9-21 08:46:19

1014139687 2

2021-9-21 08:46:19

寡姐的早期作品,用平淡的手法讲述了一个细思极恐的外星人故事。很好。
回复 支持 反对

使用道具 举报

旷大杰 发表于 2021-9-21 08:56:41

旷大杰 3

2021-9-21 08:56:41

这不电影剧情如何?
回复 支持 反对

使用道具 举报

simenswang 发表于 2021-9-21 09:18:49

simenswang 4

2021-9-21 09:18:49

旷大杰 发表于 2021-9-21 08:56
这不电影剧情如何?

看啥剧情啊?主要是看寡姐的八字乃的
回复 支持 反对

使用道具 举报

lh64080132 发表于 2021-9-21 09:53:04

lh64080132 5

2021-9-21 09:53:04

寡姐无敌,下载了
回复 支持 反对

使用道具 举报

wjc0631 发表于 2021-9-21 10:14:14

wjc0631 6

2021-9-21 10:14:14

这个资源好。感谢分享。
回复 支持 反对

使用道具 举报

蛋蛋刺挠 发表于 2021-9-21 10:22:51

蛋蛋刺挠 7

2021-9-21 10:22:51

剧情一般般吧 气氛还不错 寡姐梅少胖
回复 支持 反对

使用道具 举报

hao0105 发表于 2021-9-21 10:30:43

hao0105 8

2021-9-21 10:30:43

感谢分享。主要是看寡姐的
回复 支持 反对

使用道具 举报

cc1360394 发表于 2021-9-21 10:54:03

cc1360394 9

2021-9-21 10:54:03

冲着寡姐来的
回复 支持 反对

使用道具 举报

yangbing5511 发表于 2021-9-21 12:59:13

yangbing5511 10

2021-9-21 12:59:13

十分感谢分享!
回复 支持 反对

使用道具 举报

kirapower2019 发表于 2021-9-21 15:25:52

kirapower2019 11

2021-9-21 15:25:52

寡姐露了的片子
回复 支持 反对

使用道具 举报

les5332295 发表于 2021-9-21 18:28:19

les5332295 12

2021-9-21 18:28:19

剧情一般,寡姐露得没有艺术
回复 支持 反对

使用道具 举报

liyun80000 发表于 2021-9-21 19:47:57

liyun80000 13

2021-9-21 19:47:57

这东西我收了!谢谢楼主
回复 支持 反对

使用道具 举报

jroky0 发表于 2021-9-21 21:01:58

jroky0 14

2021-9-21 21:01:58

为啥下载不了种子
回复 支持 1 反对 0

使用道具 举报

dwman 发表于 2021-9-21 21:29:46

dwman 15

2021-9-21 21:29:46

还没下就说下载次数用完了。。。
回复 支持 2 反对 0

使用道具 举报

5800hcc 发表于 2021-9-21 22:09:38

5800hcc 16

2021-9-21 22:09:38

什么情况,下载页面一直打不开,再多点几次就显示说下载次数用完了。。。
回复 支持 反对

使用道具 举报

casanovaX 发表于 2021-9-21 22:25:46

casanovaX 17

2021-9-21 22:25:46

无法显示页面
回复 支持 反对

使用道具 举报

雅天 发表于 2021-9-21 22:50:43

雅天 18

2021-9-21 22:50:43

寡姐还是一如既往的好看
回复 支持 反对

使用道具 举报

   发表回复

您需要登录后才可以回帖 登录 | 立即注册

返回列表 本版积分规则

  • 在线客服

  • 返回顶部