微博 微信

Hao4K影音

电影频道
电影封面:
片  名: 门徒4k
电影分类: 动作 犯罪 惊悚 
国  家: 美国 
年  代: 2021年
分 辨 率: 4K(3840x2160)
电影格式: MKV|REMUX 
画质标准: HDR SDR 
音质编码: Dolby Digital Plus Audio 
电影声道: 5.1声道 
帧数/FPS: 23.976 帧
电影语言: 英文原版 
资源大小: 11.45 GB
导  演: 马丁·坎贝尔
豆瓣评分: 5.7 分
中文字幕: /thread-61981-1-1.html
剧情简介: 故事围绕伦勃朗(基顿饰)和安娜(李美琪饰)展开,这两个世界上最顶级的杀手将揭露一段发生在越南的神秘往事。多年来,他们游遍全球来互相争夺最抢手的合同。但当安娜的导师穆迪(杰克逊饰)被谋杀时,她和伦勃朗必须结盟,返回越南追捕凶手。
复仇杀姬(港) / 有价之人 / 资产 / The Protege / The Asset/门徒4k The.Protege.2021.2160p.WEB-DL.x265.10bit.HDR.DDP5.1.Atmos电影信息
  1. Video
  2. ID : 1
  3. Format : HEVC
  4. Format/Info : High Efficiency Video Coding
  5. Format profile : Main 10@L5@High
  6. HDR format : SMPTE ST 2086, HDR10 compatible
  7. Codec ID : V_MPEGH/ISO/HEVC
  8. Duration : 1 h 48 min
  9. Bit rate : 14.3 Mb/s
  10. Width : 3 832 pixels
  11. Height : 1 600 pixels
  12. Display aspect ratio : 2.40:1
  13. Frame rate mode : Constant
  14. Frame rate : 23.976 FPS
  15. Color space : YUV
  16. Chroma subsampling : 4:2:0 (Type 2)
  17. Bit depth : 10 bits
  18. Bits/(Pixel*Frame) : 0.097
  19. Stream size : 10.9 GiB (95%)
  20. Language : English
  21. Default : Yes
  22. Forced : No
  23. Color range : Limited
  24. Color primaries : BT.2020
  25. Transfer characteristics : PQ
  26. Matrix coefficients : BT.2020 non-constant
  27. Mastering display color primaries : BT.2020
  28. Mastering display luminance : min: 0.0050 cd/m2, max: 1000 cd/m2
  29. Maximum Content Light Level : 2070 cd/m2
  30. Maximum Frame-Average Light Level : 937 cd/m2

  31. Audio
  32. ID : 2
  33. Format : E-AC-3 JOC
  34. Format/Info : Enhanced AC-3 with Joint Object Coding
  35. Commercial name : Dolby Digital Plus with Dolby Atmos
  36. Codec ID : A_EAC3
  37. Duration : 1 h 48 min
  38. Bit rate mode : Constant
  39. Bit rate : 768 kb/s
  40. Channel(s) : 6 channels
  41. Channel layout : L R C LFE Ls Rs
  42. Sampling rate : 48.0 kHz
  43. Frame rate : 31.250 FPS (1536 SPF)
  44. Compression mode : Lossy
  45. Stream size : 598 MiB (5%)
  46. Title : English
  47. Language : English
  48. Service kind : Complete Main
  49. Default : No
  50. Forced : No
  51. Complexity index : 16
  52. Number of dynamic objects : 15
  53. Bed channel count : 1 channel
  54. Bed channel configuration : LFE

  55. Text #1
  56. ID : 3
  57. Format : UTF-8
  58. Codec ID : S_TEXT/UTF8
  59. Codec ID/Info : UTF-8 Plain Text
  60. Duration : 2 min 59 s
  61. Bit rate : 29 b/s
  62. Count of elements : 30
  63. Stream size : 658 Bytes (0%)
  64. Title : FORCED
  65. Language : English
  66. Default : Yes
  67. Forced : Yes

  68. Text #2
  69. ID : 4
  70. Format : UTF-8
  71. Codec ID : S_TEXT/UTF8
  72. Codec ID/Info : UTF-8 Plain Text
  73. Duration : 1 h 37 min
  74. Bit rate : 36 b/s
  75. Count of elements : 784
  76. Stream size : 25.7 KiB (0%)
  77. Language : English
  78. Default : No
  79. Forced : No
复制代码

复仇杀姬(港) / 有价之人 / 资产 / The Protege / The Asset/门徒4k The.Protege.2021.2160p.WEB-DL.x265.10bit.HDR.DDP5.1.Atmos电影下载

门徒4k The.Protege.2021.2160p.WEB-DL.x265.10bit.HDR.DDP5.1.Atmos【4k HDR 11.45 GB】
[Hao4k]门徒4k The.Protege.2021.2160p.WEB-DL.x265.10bit.HDR.DDP5.1.Atmos-NOGRP.torrent (14.96 KB, 售价: 2 个K币)
回复

使用道具 举报

全部回复1

四十不坏 发表于 2021-9-22 00:05:32

四十不坏 2

2021-9-22 00:05:32

怎么回事,今天只是签到,还没有下载过,提示说下载次数用尽????
回复 支持 反对

使用道具 举报

   发表回复

您需要登录后才可以回帖 登录 | 立即注册

返回列表 本版积分规则

  • 在线客服

  • 返回顶部