微博 微信

Hao4K影音

电影频道
电影封面:
片  名: 活死人之夜4k
电影分类: 恐怖 动画 
国  家: 美国 
年  代: 2021年
分 辨 率: 4K(3840x2160)
电影格式: MKV|REMUX 
画质标准: HDR 
音质编码: Dolby Digital Plus Audio 
电影声道: 5.1声道 
帧数/FPS: 23.976 帧
电影语言: 英文原版 
资源大小: 5.08 GB
导  演: Jason Axinn
豆瓣评分: 4.4 分
中文字幕: /thread-62187-1-1.html
剧情简介: 乔治·A·罗梅罗经典恐怖片[活死人之夜]将被翻拍为动画影片!杰森·阿克辛执导,乔什·杜哈明、杜勒·希尔、凯瑟琳·伊莎贝尔、詹姆斯·罗德、凯缇·萨克霍夫、威尔·萨索、吉米·辛普森、南希·特拉维斯配音。原版电影节以神秘丧尸复活为背景,讲述本、芭芭拉与其他五个人被困在宾州一处农庄,努力求生的故事。
活死人之夜动画版/活死人之夜4k Night.of.the.Animated.Dead.2021.2160p.WEBRip.x265.10bit.HDR.DDP5.1-4k电影信息
  1. Video
  2. ID : 1
  3. Format : HEVC
  4. Format/Info : High Efficiency Video Coding
  5. Format profile : Main 10@L5.1@Main
  6. HDR format : SMPTE ST 2086, HDR10 compatible
  7. Codec ID : V_MPEGH/ISO/HEVC
  8. Duration : 1 h 10 min
  9. Bit rate : 10.0 Mb/s
  10. Width : 3 840 pixels
  11. Height : 2 160 pixels
  12. Display aspect ratio : 16:9
  13. Frame rate mode : Constant
  14. Frame rate : 23.976 (23976/1000) FPS
  15. Color space : YUV
  16. Chroma subsampling : 4:2:0
  17. Bit depth : 10 bits
  18. Bits/(Pixel*Frame) : 0.050
  19. Stream size : 4.95 GiB (97%)
  20. Writing library : x265 3.0:[Linux][GCC 8.3.0][64 bit] 10bit
  21. Encoding settings : cpuid=1111039 / frame-threads=3 / wpp / no-pmode / no-pme / no-psnr / no-ssim / log-level=2 / input-csp=1 / input-res=3840x2160 / interlace=0 / total-frames=0 / level-idc=51 / high-tier=1 / uhd-bd=0 / ref=2 / no-allow-non-conformance / repeat-headers / annexb / no-aud / no-hrd / info / hash=0 / no-temporal-layers / no-open-gop / min-keyint=24 / keyint=48 / gop-lookahead=0 / bframes=3 / b-adapt=0 / no-b-pyramid / bframe-bias=0 / rc-lookahead=15 / lookahead-slices=8 / scenecut=0 / radl=0 / no-splice / no-intra-refresh / ctu=64 / min-cu-size=8 / no-rect / no-amp / max-tu-size=32 / tu-inter-depth=1 / tu-intra-depth=1 / limit-tu=0 / rdoq-level=0 / dynamic-rd=0.00 / no-ssim-rd / signhide / no-tskip / nr-intra=0 / nr-inter=0 / no-constrained-intra / strong-intra-smoothing / max-merge=2 / limit-refs=3 / no-limit-modes / me=1 / subme=2 / merange=57 / temporal-mvp / weightp / no-weightb / no-analyze-src-pics / deblock=0:0 / sao / no-sao-non-deblock / rd=2 / early-skip / rskip / fast-intra / no-tskip-fast / no-cu-lossless / no-b-intra / no-splitrd-skip / rdpenalty=0 / psy-rd=2.00 / psy-rdoq=0.00 / no-rd-refine / no-lossless / cbqpoffs=0 / crqpoffs=0 / rc=cbr / bitrate=11440 / qcomp=0.60 / qpstep=4 / stats-write=0 / stats-read=0 / vbv-maxrate=11440 / vbv-bufsize=22440 / vbv-init=0.9 / ipratio=1.40 / pbratio=1.30 / aq-mode=2 / aq-strength=1.00 / cutree / zone-count=0 / no-strict-cbr / qg-size=32 / no-rc-grain / qpmax=69 / qpmin=0 / no-const-vbv / sar=1 / overscan=0 / videoformat=5 / range=0 / colorprim=9 / transfer=16 / colormatrix=9 / chromaloc=0 / display-window=0 / master-display=G(8500,39850)B(6550,2300)R(35400,14600)WP(15635,16450)L(10000000,1) / max-cll=963,127 / min-luma=0 / max-luma=1023 / log2-max-poc-lsb=8 / vui-timing-info / vui-hrd-info / slices=1 / no-opt-qp-pps / no-opt-ref-list-length-pps / no-multi-pass-opt-rps / scenecut-bias=0.05 / no-opt-cu-delta-qp / no-aq-motion / hdr / no-hdr-opt / no-dhdr10-opt / no-idr-recovery-sei / analysis-reuse-level=5 / scale-factor=0 / refine-intra=0 / refine-inter=0 / refine-mv=0 / refine-ctu-distortion=0 / no-limit-sao / ctu-info=0 / no-lowpass-dct / refine-analysis-type=0 / copy-pic=1 / max-ausize-factor=1.0 / no-dynamic-refine / no-single-sei / no-hevc-aq / qp-adaptation-range=1.00
  22. Default : Yes
  23. Forced : No
  24. Color range : Limited
  25. Color primaries : BT.2020
  26. Transfer characteristics : PQ
  27. Matrix coefficients : BT.2020 non-constant
  28. Mastering display color primaries : BT.2020
  29. Mastering display luminance : min: 0.0001 cd/m2, max: 1000 cd/m2
  30. Maximum Content Light Level : 963 cd/m2
  31. Maximum Frame-Average Light Level : 127 cd/m2

  32. Audio
  33. ID : 2
  34. Format : E-AC-3
  35. Format/Info : Enhanced AC-3
  36. Commercial name : Dolby Digital Plus
  37. Codec ID : A_EAC3
  38. Duration : 1 h 10 min
  39. Bit rate mode : Constant
  40. Bit rate : 256 kb/s
  41. Channel(s) : 6 channels
  42. Channel layout : L R C LFE Ls Rs
  43. Sampling rate : 48.0 kHz
  44. Frame rate : 31.250 FPS (1536 SPF)
  45. Compression mode : Lossy
  46. Stream size : 129 MiB (2%)
  47. Language : English
  48. Service kind : Complete Main
  49. Default : No
  50. Forced : No

  51. Text
  52. ID : 3
  53. Format : UTF-8
  54. Codec ID : S_TEXT/UTF8
  55. Codec ID/Info : UTF-8 Plain Text
  56. Duration : 1 h 8 min
  57. Bit rate : 53 b/s
  58. Count of elements : 751
  59. Stream size : 27.2 KiB (0%)
  60. Title : eng_Full
  61. Language : English
  62. Default : No
  63. Forced : No
复制代码

活死人之夜动画版/活死人之夜4k Night.of.the.Animated.Dead.2021.2160p.WEBRip.x265.10bit.HDR.DDP5.1-4k电影下载
活死人之夜4k Night.of.the.Animated.Dead.2021.2160p.WEBRip.x265.10bit.HDR.DDP5.1【4k HDR 5.08 GB】
[Hao4k]活死人之夜4K Night.of.the.Animated.Dead.2021.2160p.WEBRip.x265.10bit.HDR.DDP5.1-NOGRP.torrent (13.35 KB)
回复

使用道具 举报

全部回复2

kansiqian 发表于 2021-9-23 09:11:59

kansiqian 2

2021-9-23 09:11:59

谢谢,求字幕
回复 支持 5 反对 0

使用道具 举报

125458722 发表于 2021-9-30 09:37:15 Hao4K手机版

125458722 3

2021-9-30 09:37:15

好久以前看的了,都忘得差不多了,先Mark
回复 支持 反对

使用道具 举报

   发表回复

您需要登录后才可以回帖 登录 | 立即注册

返回列表 本版积分规则

  • 在线客服

  • 返回顶部