微博 微信 手机APP

Hao4K影音

电视剧频道
电视剧封面:
电视剧名: 前提4
年  代: 2021  
国  家: 美国
类  别: 剧情 喜剧 
语  言: 英语
字  幕: -
上映日期: 2021-09-16
文件格式: mkv    
视频效果: 4K(3840x2160)    
资源大小: 3.14 GB
片  长: 30 分钟
导  演: B·J·诺瓦克
剧情简介: FX预订一部每集半小时的未定名新剧,B·J·诺瓦克(《办公室》)自编自导并担任执行制作人。该剧每集卡司不同,讲述我们现在生活的世界。该剧前两集的拍摄工作已完成,第一集卡司包括卢卡斯·赫奇斯、凯特琳·德弗、小奥谢拉·杰克逊、乔治·华莱士、爱德华·阿斯纳,第二集卡司包括乔·博恩瑟、波伊德·霍布鲁克、艾米·兰德克、博·布里奇斯。
平台 / Platform/前提4k The.Premise.2160p.WEB.H265美剧信息
  1. Video
  2. ID : 1
  3. Format : HEVC
  4. Format/Info : High Efficiency Video Coding
  5. Format profile : Main 10@L5.1@Main
  6. Codec ID : V_MPEGH/ISO/HEVC
  7. Duration : 29 min 30 s
  8. Bit rate : 14.7 Mb/s
  9. Width : 3 840 pixels
  10. Height : 2 160 pixels
  11. Display aspect ratio : 16:9
  12. Frame rate mode : Constant
  13. Frame rate : 23.976 (24000/1001) FPS
  14. Color space : YUV
  15. Chroma subsampling : 4:2:0
  16. Bit depth : 10 bits
  17. Bits/(Pixel*Frame) : 0.074
  18. Stream size : 3.02 GiB (96%)
  19. Default : Yes
  20. Forced : No

  21. Audio
  22. ID : 2
  23. Format : E-AC-3
  24. Format/Info : Enhanced AC-3
  25. Commercial name : Dolby Digital Plus
  26. Codec ID : A_EAC3
  27. Duration : 29 min 30 s
  28. Bit rate mode : Constant
  29. Bit rate : 256 kb/s
  30. Channel(s) : 6 channels
  31. Channel layout : L R C LFE Ls Rs
  32. Sampling rate : 48.0 kHz
  33. Frame rate : 31.250 FPS (1536 SPF)
  34. Compression mode : Lossy
  35. Delay relative to video : 20 ms
  36. Stream size : 54.0 MiB (2%)
  37. Language : English
  38. Service kind : Complete Main
  39. Default : Yes
  40. Forced : No

  41. Text
  42. ID : 3
  43. Format : UTF-8
  44. Codec ID : S_TEXT/UTF8
  45. Codec ID/Info : UTF-8 Plain Text
  46. Title : English
  47. Language : English
  48. Default : No
  49. Forced : No
复制代码

平台 / Platform/前提4k The.Premise.2160p.WEB.H265美剧下载

前提4k The.Premise.S01.2160p.HULU.WEBRip.DDP5.1.x265【16.71GB】
[Hao4k]前提4k The.Premise.S01.2160p.HULU.WEBRip.DDP5.1.x265-FLUX.torrent (21.88 KB)
回复

使用道具 举报

   发表回复

您需要登录后才可以回帖 登录 | 立即注册

返回列表 本版积分规则

  • 发布新帖

  • 客服/帮助

  • 手机APP

  • 返回顶部