微博 微信 手机APP

Hao4K影音

电影频道
电影封面:
片  名: 扎克·施奈德版正义联盟
电影分类: 动作 科幻 冒险 剧情 奇幻 
国  家: 美国 
年  代: 2021年
分 辨 率: 4K(3840x2160)
电影格式: M2TS|BDMV 
画质标准: Dolby Vision HDR10 
音质编码: Dolby-Atmos Dolby-TrueHD 
电影声道: 7.1声道 其他 
帧数/FPS: 23.976 帧
电影语言: 中文简体 中文繁体 英文原版 
资源大小: 96.63 GB
导  演: 扎克·施奈德
豆瓣评分: 8.2 分
中文字幕: -
剧情简介: 布鲁斯·韦恩(本·阿弗莱克饰)为了确保不让超人(亨利·卡维尔饰)白白牺牲,他决定与戴安娜·普林斯(盖尔·加朵饰)联手并计划招募一支超能力者团队来保护世界免遭即将到来的灾难性威胁。但这项任务比布鲁斯想象中要困难,因为每位成员都必须面对并跨越自己过去的心魔,团结起来,最终形成一个前所未有的英雄联盟。 蝙蝠侠、神奇女侠、海王(杰森·莫玛饰)、钢骨(雷·费舍饰)、闪电侠(埃兹拉·米勒饰)现在必须联合起来,否则就无法阻止荒原狼(塞伦·希德饰)、狄萨德(彼得·吉尼斯饰)以及达克赛德(雷·波特饰)毁灭地球的可怕计划。
画面源于UHD蓝光原盘,双碟合并,删除中间换碟提示,参照流媒体版本保留章与章之间的黑帧。
杜比视界RPU元数据来自HBOMAX流媒体版本,经调整与原盘保持同步。
音频仅保留原盘英语杜比全景声,字幕保留原盘简/繁/英。

详细文件信息:
  1. Video
  2. ID                                       : 4117 (0x1015)
  3. Menu ID                                  : 1 (0x1)
  4. Format                                   : HEVC
  5. Format/Info                              : High Efficiency Video Coding
  6. Format profile                           : Main 10@L5.1@High
  7. HDR format                               : Dolby Vision, Version 1.0, dvhe.08.06, BL+RPU, HDR10 compatible / SMPTE ST 2086, HDR10 compatible
  8. Codec ID                                 : 36
  9. Duration                                 : 4 h 2 min
  10. Bit rate                                 : 53.7 Mb/s
  11. Width                                    : 3 840 pixels
  12. Height                                   : 2 160 pixels
  13. Display aspect ratio                     : 16:9
  14. Frame rate                               : 23.976 (24000/1001) FPS
  15. Color space                              : YUV
  16. Chroma subsampling                       : 4:2:0 (Type 2)
  17. Bit depth                                : 10 bits
  18. Bits/(Pixel*Frame)                       : 0.270
  19. Stream size                              : 90.8 GiB (94%)
  20. Color range                              : Limited
  21. Color primaries                          : BT.2020
  22. Transfer characteristics                 : PQ
  23. Matrix coefficients                      : BT.2020 non-constant
  24. Mastering display color primaries        : Display P3
  25. Mastering display luminance              : min: 0.0001 cd/m2, max: 1000 cd/m2
  26. Maximum Content Light Level              : 597 cd/m2
  27. Maximum Frame-Average Light Level        : 122 cd/m2

  28. Audio
  29. ID                                       : 4352 (0x1100)
  30. Menu ID                                  : 1 (0x1)
  31. Format                                   : MLP FBA AC-3 16-ch
  32. Format/Info                              : Meridian Lossless Packing FBA with 16-channel presentation
  33. Commercial name                          : Dolby TrueHD with Dolby Atmos
  34. Muxing mode                              : Stream extension
  35. Codec ID                                 : 131
  36. Duration                                 : 4 h 2 min
  37. Bit rate mode                            : Variable
  38. Bit rate                                 : 640 kb/s
  39. Maximum bit rate                         : 4 773 kb/s
  40. Channel(s)                               : 8 channels
  41. Channel layout                           : L R C LFE Ls Rs Lb Rb
  42. Sampling rate                            : 48.0 kHz
  43. Frame rate                               : 31.250 FPS (1536 SPF)
  44. Compression mode                         : Lossless
  45. Stream size                              : 1.08 GiB (1%)
  46. Language                                 : English
  47. Service kind                             : Complete Main
  48. Number of dynamic objects                : 11
  49. Bed channel count                        : 1 channel
  50. Bed channel configuration                : LFE

  51. Text #1
  52. ID                                       : 4768 (0x12A0)
  53. Menu ID                                  : 1 (0x1)
  54. Format                                   : PGS
  55. Codec ID                                 : 144
  56. Language                                 : Chinese

  57. Text #2
  58. ID                                       : 4769 (0x12A1)
  59. Menu ID                                  : 1 (0x1)
  60. Format                                   : PGS
  61. Codec ID                                 : 144
  62. Language                                 : Chinese

  63. Text #3
  64. ID                                       : 4770 (0x12A2)
  65. Menu ID                                  : 1 (0x1)
  66. Format                                   : PGS
  67. Codec ID                                 : 144
  68. Language                                 : English
复制代码

不确保所有支持杜比视界的设备均可正常播放,请务必先下载测试片段进行测试。

测试片段链接(阿里云盘):https://www.aliyundrive.com/s/CoxSadwuRcr

完整版链接(阿里云盘):https://www.aliyundrive.com/s/Vbq3gAX4Rf1

回复

使用道具 举报

全部回复24

lyh090116 发表于 2021-9-25 19:04:17

lyh090116 推荐

2021-9-25 19:04:17

745745 发表于 2021-9-25 17:37
这部电影本来就是按4:3制作的啊,流媒体和蓝光都是一样的画幅。

真心看不惯这比例啊,哈哈,原盘的一直没看,这样的话还是抽空看掉算了
回复 支持 1 反对 0

使用道具 举报

745745 发表于 2021-9-25 19:35:19 Hao4K手机版

745745 推荐

2021-9-25 19:35:19

lyh090116 发表于 2021-9-25 19:04
真心看不惯这比例啊,哈哈,原盘的一直没看,这样的话还是抽空看掉算了

老电影胶片的学院比例差不多就是这个画幅(略宽),IMAX胶片也差不多是这个画幅(略宽)。在电视上观看不同比例只要习惯就好了,按照创作者意图的画幅比例去观看总是最好的。
回复 支持 1 反对 0

使用道具 举报

ZombieNight 发表于 2021-9-24 16:17:24 Hao4K手机版

ZombieNight 2

2021-9-24 16:17:24

有没有115网盘?
回复 支持 反对

使用道具 举报

745745 发表于 2021-9-24 17:32:03 Hao4K手机版

745745 3

2021-9-24 17:32:03

ZombieNight 发表于 2021-9-24 16:17
有没有115网盘?

我看看之后有没有时间上传,主要这个文件接近100G,上传压力比较大。
回复 支持 反对

使用道具 举报

ZombieNight 发表于 2021-9-24 17:33:36

ZombieNight 4

2021-9-24 17:33:36

745745 发表于 2021-9-24 17:32
我看看之后有没有时间上传,主要这个文件接近100G,上传压力比较大。

这样啊,辛苦了
回复 支持 反对

使用道具 举报

745745 发表于 2021-9-24 17:36:19 Hao4K手机版

745745 5

2021-9-24 17:36:19

ZombieNight 发表于 2021-9-24 17:33
这样啊,辛苦了

嗯,115的客户端上传速度不太稳定,验证sha1也要好久,所以先传了阿里云盘,反正都可以不限速下载。
回复 支持 反对

使用道具 举报

农夫舅舅 发表于 2021-9-25 08:54:25 Hao4K手机版

农夫舅舅 6

2021-9-25 08:54:25

干嘛要买115网盘,买个好点的路由器或猫下载就很快
回复 支持 反对

使用道具 举报

jaychan0933 发表于 2021-9-25 08:55:04

jaychan0933 7

2021-9-25 08:55:04

感谢分享
回复 支持 反对

使用道具 举报

快乐大男人 发表于 2021-9-25 16:23:59

快乐大男人 8

2021-9-25 16:23:59

辛苦楼主了,但是现在打开阿里云显示连接有问题
回复 支持 反对

使用道具 举报

745745 发表于 2021-9-25 16:41:09 Hao4K手机版

745745 9

2021-9-25 16:41:09

快乐大男人 发表于 2021-9-25 16:23
辛苦楼主了,但是现在打开阿里云显示连接有问题

我检查了一下,没问题啊
回复 支持 反对

使用道具 举报

快乐大男人 发表于 2021-9-25 16:47:15

快乐大男人 10

2021-9-25 16:47:15

745745 发表于 2021-9-25 16:41
我检查了一下,没问题啊

我打开就是这样的

我打开就是这样的


就是这样的


回复 支持 反对

使用道具 举报

lyh090116 发表于 2021-9-25 17:27:38

lyh090116 11

2021-9-25 17:27:38

这还是4比3的画面比例?
回复 支持 反对

使用道具 举报

745745 发表于 2021-9-25 17:36:03 Hao4K手机版

745745 12

2021-9-25 17:36:03

快乐大男人 发表于 2021-9-25 16:47
就是这样的

换一个浏览器试试?我刚又试了一下,没问题。
回复 支持 反对

使用道具 举报

745745 发表于 2021-9-25 17:37:29 Hao4K手机版

745745 13

2021-9-25 17:37:29

lyh090116 发表于 2021-9-25 17:27
这还是4比3的画面比例?

这部电影本来就是按4:3制作的啊,流媒体和蓝光都是一样的画幅。
回复 支持 反对

使用道具 举报

3dfxvoodoo 发表于 2021-9-25 17:38:13 Hao4K手机版

3dfxvoodoo 14

2021-9-25 17:38:13

感谢楼主分享,下载到60多G报错,提示下载失败
回复 支持 反对

使用道具 举报

745745 发表于 2021-9-25 17:42:32 Hao4K手机版

745745 15

2021-9-25 17:42:32

3dfxvoodoo 发表于 2021-9-25 17:38
感谢楼主分享,下载到60多G报错,提示下载失败

那只能重新再试试看了,尽量用官方客户端来下会稳定一些
回复 支持 反对

使用道具 举报

快乐大男人 发表于 2021-9-25 17:47:38

快乐大男人 16

2021-9-25 17:47:38

745745 发表于 2021-9-25 17:36
换一个浏览器试试?我刚又试了一下,没问题。

好的,谢谢你
回复 支持 反对

使用道具 举报

745745 发表于 2021-9-25 18:19:52

745745 17

2021-9-25 18:19:52

3dfxvoodoo 发表于 2021-9-25 17:38
感谢楼主分享,下载到60多G报错,提示下载失败

也看看硬盘空间够不够
回复 支持 反对

使用道具 举报

   发表回复

您需要登录后才可以回帖 登录 | 立即注册

返回列表 本版积分规则

  • 发布新帖

  • 客服/帮助

  • 手机APP

  • 返回顶部