微博 微信

Hao4K影音

电影频道
电影封面:
片  名: 天堂鸟4k
电影分类: 剧情 悬疑 爱情片 
国  家: 美国 
年  代: 2021年
分 辨 率: 4K(3840x2160)
电影格式: MKV|REMUX 
画质标准: HDR10 
音质编码: Dolby Digital Plus Audio 
电影声道: 5.1声道 
帧数/FPS: 23.976 帧
电影语言: 英文原版 
资源大小: 12.22 GB
导  演: 萨拉·阿迪纳·史密斯
豆瓣评分:
中文字幕: -
剧情简介:  Kate Sanders (Diana Silvers) is an ambitious and gifted, if tomboyish, aspiring ballerina from Virginia who, because of her low-income status, is given a scholarship to attend a prestigious ballet school in Paris, France. Upon arriving at the cutthroat, internationally-renowned institution, her confidence and emotional fortitude are tested by a beautiful, mysterious fellow dancer, Marine Durand (Kristine Froseth), who recently lost her brother (and dance partner) to suicide. While confrontational at first, Kate and Marine’s relationship evolves into an emotionally-charged, competitive union beset by lies, sexual awakening and, ultimately, emotional breakthrough as they risk everything to win the school’s ultimate prize: a contract to join the Opéra national de Paris.
天堂鸟4k Birds.of.Paradise.2021.2160p.AMZN.WEB-DL.x265.10bit.HDR10Plus.DDP5.1.Atmos电影信息
  1. Video
  2. ID : 1
  3. Format : HEVC
  4. Format/Info : High Efficiency Video Coding
  5. Format profile : Main 10@L5@Main
  6. HDR format : SMPTE ST 2094 App 4, Version 1, HDR10+ Profile B compatible
  7. Codec ID : V_MPEGH/ISO/HEVC
  8. Duration : 1 h 53 min
  9. Bit rate : 15.0 Mb/s
  10. Width : 3 840 pixels
  11. Height : 1 600 pixels
  12. Display aspect ratio : 2.40:1
  13. Frame rate mode : Constant
  14. Frame rate : 23.976 (24000/1001) FPS
  15. Color space : YUV
  16. Chroma subsampling : 4:2:0
  17. Bit depth : 10 bits
  18. Bits/(Pixel*Frame) : 0.102
  19. Stream size : 11.9 GiB (97%)
  20. Default : Yes
  21. Forced : No
  22. Color range : Limited
  23. Color primaries : BT.2020
  24. Transfer characteristics : PQ
  25. Matrix coefficients : BT.2020 non-constant
  26. Mastering display color primaries : Display P3
  27. Mastering display luminance : min: 0.0001 cd/m2, max: 1000 cd/m2
  28. Maximum Content Light Level : 843 cd/m2
  29. Maximum Frame-Average Light Level : 203 cd/m2

  30. Audio
  31. ID : 2
  32. Format : E-AC-3 JOC
  33. Format/Info : Enhanced AC-3 with Joint Object Coding
  34. Commercial name : Dolby Digital Plus with Dolby Atmos
  35. Codec ID : A_EAC3
  36. Duration : 1 h 53 min
  37. Bit rate mode : Constant
  38. Bit rate : 448 kb/s
  39. Channel(s) : 6 channels
  40. Channel layout : L R C LFE Ls Rs
  41. Sampling rate : 48.0 kHz
  42. Frame rate : 31.250 FPS (1536 SPF)
  43. Compression mode : Lossy
  44. Stream size : 364 MiB (3%)
  45. Title : English
  46. Language : English
  47. Service kind : Complete Main
  48. Default : No
  49. Forced : No
  50. Complexity index : 16
  51. Number of dynamic objects : 15
  52. Bed channel count : 1 channel
  53. Bed channel configuration : LFE

  54. Text #1
  55. ID : 3
  56. Format : UTF-8
  57. Codec ID : S_TEXT/UTF8
  58. Codec ID/Info : UTF-8 Plain Text
  59. Duration : 1 h 45 min
  60. Bit rate : 37 b/s
  61. Count of elements : 1120
  62. Stream size : 29.4 KiB (0%)
  63. Language : English
  64. Default : Yes
  65. Forced : No

  66. Text #2
  67. ID : 4
  68. Format : UTF-8
  69. Codec ID : S_TEXT/UTF8
  70. Codec ID/Info : UTF-8 Plain Text
  71. Duration : 1 h 52 min
  72. Bit rate : 47 b/s
  73. Count of elements : 1519
  74. Stream size : 39.7 KiB (0%)
  75. Title : SDH
  76. Language : English
  77. Default : No
  78. Forced : No

  79. Text #3
  80. ID : 5
  81. Format : UTF-8
  82. Codec ID : S_TEXT/UTF8
  83. Codec ID/Info : UTF-8 Plain Text
  84. Duration : 1 h 52 min
  85. Bit rate : 33 b/s
  86. Count of elements : 1012
  87. Stream size : 27.9 KiB (0%)
  88. Language : Malay
  89. Default : No
  90. Forced : No

  91. Text #4
  92. ID : 6
  93. Format : UTF-8
  94. Codec ID : S_TEXT/UTF8
  95. Codec ID/Info : UTF-8 Plain Text
  96. Duration : 1 h 51 min
  97. Bit rate : 33 b/s
  98. Count of elements : 1011
  99. Stream size : 27.1 KiB (0%)
  100. Language : Danish
  101. Default : No
  102. Forced : No

  103. Text #5
  104. ID : 7
  105. Format : UTF-8
  106. Codec ID : S_TEXT/UTF8
  107. Codec ID/Info : UTF-8 Plain Text
  108. Duration : 1 h 52 min
  109. Bit rate : 35 b/s
  110. Count of elements : 1015
  111. Stream size : 28.8 KiB (0%)
  112. Language : German
  113. Default : No
  114. Forced : No

  115. Text #6
  116. ID : 8
  117. Format : UTF-8
  118. Codec ID : S_TEXT/UTF8
  119. Codec ID/Info : UTF-8 Plain Text
  120. Duration : 1 h 52 min
  121. Bit rate : 33 b/s
  122. Count of elements : 1008
  123. Stream size : 27.8 KiB (0%)
  124. Title : Español (España)
  125. Language : Spanish
  126. Default : No
  127. Forced : No

  128. Text #7
  129. ID : 9
  130. Format : UTF-8
  131. Codec ID : S_TEXT/UTF8
  132. Codec ID/Info : UTF-8 Plain Text
  133. Duration : 1 h 52 min
  134. Bit rate : 33 b/s
  135. Count of elements : 1016
  136. Stream size : 27.7 KiB (0%)
  137. Title : Español (Latinoamérica)
  138. Language : Spanish
  139. Default : No
  140. Forced : No

  141. Text #8
  142. ID : 10
  143. Format : UTF-8
  144. Codec ID : S_TEXT/UTF8
  145. Codec ID/Info : UTF-8 Plain Text
  146. Duration : 1 h 51 min
  147. Bit rate : 35 b/s
  148. Count of elements : 1009
  149. Stream size : 29.0 KiB (0%)
  150. Language : fil
  151. Default : No
  152. Forced : No

  153. Text #9
  154. ID : 11
  155. Format : UTF-8
  156. Codec ID : S_TEXT/UTF8
  157. Codec ID/Info : UTF-8 Plain Text
  158. Duration : 1 h 52 min
  159. Bit rate : 30 b/s
  160. Count of elements : 890
  161. Stream size : 25.5 KiB (0%)
  162. Language : French
  163. Default : No
  164. Forced : No

  165. Text #10
  166. ID : 12
  167. Format : UTF-8
  168. Codec ID : S_TEXT/UTF8
  169. Codec ID/Info : UTF-8 Plain Text
  170. Duration : 1 h 52 min
  171. Bit rate : 33 b/s
  172. Count of elements : 1012
  173. Stream size : 27.4 KiB (0%)
  174. Language : Indonesian
  175. Default : No
  176. Forced : No

  177. Text #11
  178. ID : 13
  179. Format : UTF-8
  180. Codec ID : S_TEXT/UTF8
  181. Codec ID/Info : UTF-8 Plain Text
  182. Duration : 1 h 51 min
  183. Bit rate : 33 b/s
  184. Count of elements : 1011
  185. Stream size : 27.6 KiB (0%)
  186. Language : Italian
  187. Default : No
  188. Forced : No

  189. Text #12
  190. ID : 14
  191. Format : UTF-8
  192. Codec ID : S_TEXT/UTF8
  193. Codec ID/Info : UTF-8 Plain Text
  194. Duration : 1 h 52 min
  195. Bit rate : 36 b/s
  196. Count of elements : 1013
  197. Stream size : 29.7 KiB (0%)
  198. Language : Hungarian
  199. Default : No
  200. Forced : No

  201. Text #13
  202. ID : 15
  203. Format : UTF-8
  204. Codec ID : S_TEXT/UTF8
  205. Codec ID/Info : UTF-8 Plain Text
  206. Duration : 1 h 51 min
  207. Bit rate : 33 b/s
  208. Count of elements : 1011
  209. Stream size : 27.2 KiB (0%)
  210. Language : Dutch
  211. Default : No
  212. Forced : No

  213. Text #14
  214. ID : 16
  215. Format : UTF-8
  216. Codec ID : S_TEXT/UTF8
  217. Codec ID/Info : UTF-8 Plain Text
  218. Duration : 1 h 52 min
  219. Bit rate : 33 b/s
  220. Count of elements : 1012
  221. Stream size : 27.6 KiB (0%)
  222. Language : Norwegian Bokmal
  223. Default : No
  224. Forced : No

  225. Text #15
  226. ID : 17
  227. Format : UTF-8
  228. Codec ID : S_TEXT/UTF8
  229. Codec ID/Info : UTF-8 Plain Text
  230. Duration : 1 h 51 min
  231. Bit rate : 32 b/s
  232. Count of elements : 1013
  233. Stream size : 26.5 KiB (0%)
  234. Language : Polish
  235. Default : No
  236. Forced : No

  237. Text #16
  238. ID : 18
  239. Format : UTF-8
  240. Codec ID : S_TEXT/UTF8
  241. Codec ID/Info : UTF-8 Plain Text
  242. Duration : 1 h 52 min
  243. Bit rate : 34 b/s
  244. Count of elements : 1002
  245. Stream size : 28.1 KiB (0%)
  246. Title : Português (Brasil)
  247. Language : Portuguese
  248. Default : No
  249. Forced : No

  250. Text #17
  251. ID : 19
  252. Format : UTF-8
  253. Codec ID : S_TEXT/UTF8
  254. Codec ID/Info : UTF-8 Plain Text
  255. Duration : 1 h 52 min
  256. Bit rate : 33 b/s
  257. Count of elements : 1009
  258. Stream size : 27.7 KiB (0%)
  259. Title : Português (Portugal)
  260. Language : Portuguese
  261. Default : No
  262. Forced : No

  263. Text #18
  264. ID : 20
  265. Format : UTF-8
  266. Codec ID : S_TEXT/UTF8
  267. Codec ID/Info : UTF-8 Plain Text
  268. Duration : 1 h 52 min
  269. Bit rate : 34 b/s
  270. Count of elements : 1013
  271. Stream size : 28.0 KiB (0%)
  272. Language : Romanian
  273. Default : No
  274. Forced : No

  275. Text #19
  276. ID : 21
  277. Format : UTF-8
  278. Codec ID : S_TEXT/UTF8
  279. Codec ID/Info : UTF-8 Plain Text
  280. Duration : 1 h 52 min
  281. Bit rate : 33 b/s
  282. Count of elements : 1013
  283. Stream size : 27.2 KiB (0%)
  284. Language : Finnish
  285. Default : No
  286. Forced : No

  287. Text #20
  288. ID : 22
  289. Format : UTF-8
  290. Codec ID : S_TEXT/UTF8
  291. Codec ID/Info : UTF-8 Plain Text
  292. Duration : 1 h 51 min
  293. Bit rate : 31 b/s
  294. Count of elements : 1010
  295. Stream size : 25.7 KiB (0%)
  296. Language : Swedish
  297. Default : No
  298. Forced : No

  299. Text #21
  300. ID : 23
  301. Format : UTF-8
  302. Codec ID : S_TEXT/UTF8
  303. Codec ID/Info : UTF-8 Plain Text
  304. Duration : 1 h 52 min
  305. Bit rate : 33 b/s
  306. Count of elements : 1016
  307. Stream size : 27.8 KiB (0%)
  308. Language : Turkish
  309. Default : No
  310. Forced : No

  311. Text #22
  312. ID : 24
  313. Format : UTF-8
  314. Codec ID : S_TEXT/UTF8
  315. Codec ID/Info : UTF-8 Plain Text
  316. Duration : 1 h 52 min
  317. Bit rate : 32 b/s
  318. Count of elements : 1021
  319. Stream size : 26.9 KiB (0%)
  320. Language : Czech
  321. Default : No
  322. Forced : No

  323. Text #23
  324. ID : 25
  325. Format : UTF-8
  326. Codec ID : S_TEXT/UTF8
  327. Codec ID/Info : UTF-8 Plain Text
  328. Duration : 1 h 52 min
  329. Bit rate : 62 b/s
  330. Count of elements : 1019
  331. Stream size : 51.7 KiB (0%)
  332. Language : Greek
  333. Default : No
  334. Forced : No

  335. Text #24
  336. ID : 26
  337. Format : UTF-8
  338. Codec ID : S_TEXT/UTF8
  339. Codec ID/Info : UTF-8 Plain Text
  340. Duration : 1 h 52 min
  341. Bit rate : 56 b/s
  342. Count of elements : 1023
  343. Stream size : 46.4 KiB (0%)
  344. Language : Russian
  345. Default : No
  346. Forced : No

  347. Text #25
  348. ID : 27
  349. Format : UTF-8
  350. Codec ID : S_TEXT/UTF8
  351. Codec ID/Info : UTF-8 Plain Text
  352. Duration : 1 h 52 min
  353. Bit rate : 54 b/s
  354. Count of elements : 1024
  355. Stream size : 44.8 KiB (0%)
  356. Language : Hebrew
  357. Default : No
  358. Forced : No

  359. Text #26
  360. ID : 28
  361. Format : UTF-8
  362. Codec ID : S_TEXT/UTF8
  363. Codec ID/Info : UTF-8 Plain Text
  364. Duration : 1 h 52 min
  365. Bit rate : 55 b/s
  366. Count of elements : 1024
  367. Stream size : 46.1 KiB (0%)
  368. Language : Arabic
  369. Default : No
  370. Forced : No

  371. Text #27
  372. ID : 29
  373. Format : UTF-8
  374. Codec ID : S_TEXT/UTF8
  375. Codec ID/Info : UTF-8 Plain Text
  376. Duration : 1 h 52 min
  377. Bit rate : 85 b/s
  378. Count of elements : 1024
  379. Stream size : 70.0 KiB (0%)
  380. Language : Hindi
  381. Default : No
  382. Forced : No

  383. Text #28
  384. ID : 30
  385. Format : UTF-8
  386. Codec ID : S_TEXT/UTF8
  387. Codec ID/Info : UTF-8 Plain Text
  388. Duration : 1 h 52 min
  389. Bit rate : 87 b/s
  390. Count of elements : 1024
  391. Stream size : 72.0 KiB (0%)
  392. Language : Tamil
  393. Default : No
  394. Forced : No

  395. Text #29
  396. ID : 31
  397. Format : UTF-8
  398. Codec ID : S_TEXT/UTF8
  399. Codec ID/Info : UTF-8 Plain Text
  400. Duration : 1 h 52 min
  401. Bit rate : 82 b/s
  402. Count of elements : 1024
  403. Stream size : 67.6 KiB (0%)
  404. Language : Telugu
  405. Default : No
  406. Forced : No

  407. Text #30
  408. ID : 32
  409. Format : UTF-8
  410. Codec ID : S_TEXT/UTF8
  411. Codec ID/Info : UTF-8 Plain Text
  412. Duration : 1 h 52 min
  413. Bit rate : 89 b/s
  414. Count of elements : 1024
  415. Stream size : 74.0 KiB (0%)
  416. Language : Thai
  417. Default : No
  418. Forced : No

  419. Text #31
  420. ID : 33
  421. Format : UTF-8
  422. Codec ID : S_TEXT/UTF8
  423. Codec ID/Info : UTF-8 Plain Text
  424. Duration : 1 h 52 min
  425. Bit rate : 31 b/s
  426. Count of elements : 1024
  427. Stream size : 25.8 KiB (0%)
  428. Title : 中文(简体)
  429. Language : Chinese
  430. Default : No
  431. Forced : No

  432. Text #32
  433. ID : 34
  434. Format : UTF-8
  435. Codec ID : S_TEXT/UTF8
  436. Codec ID/Info : UTF-8 Plain Text
  437. Duration : 1 h 52 min
  438. Bit rate : 30 b/s
  439. Count of elements : 1024
  440. Stream size : 25.3 KiB (0%)
  441. Title : 中文(繁體)
  442. Language : Chinese
  443. Default : No
  444. Forced : No
复制代码

天堂鸟4k Birds.of.Paradise.2021.2160p.AMZN.WEB-DL.x265.10bit.HDR10Plus.DDP5.1.Atmos电影下载

天堂鸟4k Birds.of.Paradise.2021.2160p.AMZN.WEB-DL.x265.10bit.HDR10Plus.DDP5.1.Atmos简繁中字【4k HDR 12.22 GB 】
[Hao4k]天堂鸟4k Birds.of.Paradise.2021.2160p.AMZN.WEB-DL.x265.10bit.HDR10Plus.DDP5.1.Atmos-NOGRP.torrent (15.96 KB, 售价: 3 个K币)
回复

使用道具 举报

全部回复2

lqsong 发表于 2021-9-25 10:08:51

lqsong 2

2021-9-25 10:08:51

谢谢分享!
回复 支持 反对

使用道具 举报

勇往直前168 发表于 2021-9-26 17:15:40

勇往直前168 3

2021-9-26 17:15:40

简介
凯特·桑德斯(戴安娜·西尔弗斯饰)来自弗吉尼亚州,是一位雄心勃勃、天赋异禀的芭蕾舞演员,尽管有点假小子气,但她很有抱负。由于收入低,她获得了奖学金,可以进入法国巴黎一所著名的芭蕾舞学校学习。来到这个国际知名的“杀手”机构后,她的自信和情感坚忍受到了美丽神秘的舞伴玛琳·杜兰德(Kristine Froseth)的考验,她最近因自杀失去了哥哥(和舞伴)。凯特和马琳一开始是对抗性的,但随着他们冒着一切风险赢得学校的最终奖项:一份加入巴黎国家歌剧院的合同,凯特和马琳的关系演变成了一个充满感情的、充满竞争的联盟,被谎言、性觉醒和最终的情感突破所困扰。
回复 支持 反对

使用道具 举报

   发表回复

您需要登录后才可以回帖 登录 | 立即注册

返回列表 本版积分规则

  • 在线客服

  • 返回顶部