微博 微信 手机APP

Hao4K影音

电影频道
电影封面:
片  名: 比以往任何时候都更快乐:写给洛杉矶的情书4k
电影分类: 其他 
国  家: 美国 
年  代: 2021年
分 辨 率: 4K(3840x2160)
电影格式: MKV|REMUX 
画质标准: HDR 
音质编码: Dolby Digital Plus Audio 
电影声道: 其他 
帧数/FPS: 24.000 帧
电影语言: 英文原版 
资源大小: 7.79 GB
导  演: 罗伯特·罗德里格兹 / 帕特里克·奥斯本
豆瓣评分: 8.4 分
中文字幕: -
剧情简介: You’ve never experienced a concert like this.
Happier Than Ever: A Love Letter to LA/比以往任何时候都更快乐:写给洛杉矶的情书4k Happier.Than.Ever.A.Love.Letter.to.Los.Angeles.2021.HDR.2160p.WEB.h265-4k纪录片电影信息
  1. Video
  2. ID : 1
  3. Format : HEVC
  4. Format/Info : High Efficiency Video Coding
  5. Format profile : Main 10@L5@High
  6. HDR format : SMPTE ST 2086, HDR10 compatible
  7. Codec ID : V_MPEGH/ISO/HEVC
  8. Duration : 1 h 5 min
  9. Bit rate : 16.2 Mb/s
  10. Width : 3 840 pixels
  11. Height : 2 160 pixels
  12. Display aspect ratio : 16:9
  13. Frame rate mode : Constant
  14. Frame rate : 24.000 FPS
  15. Color space : YUV
  16. Chroma subsampling : 4:2:0
  17. Bit depth : 10 bits
  18. Bits/(Pixel*Frame) : 0.081
  19. Stream size : 7.43 GiB (95%)
  20. Language : English
  21. Default : Yes
  22. Forced : No
  23. Color range : Limited
  24. Color primaries : BT.2020
  25. Transfer characteristics : PQ
  26. Matrix coefficients : BT.2020 non-constant
  27. Mastering display color primaries : BT.2020
  28. Mastering display luminance : min: 0.0001 cd/m2, max: 1000 cd/m2

  29. Audio
  30. ID : 2
  31. Format : E-AC-3 JOC
  32. Format/Info : Enhanced AC-3 with Joint Object Coding
  33. Commercial name : Dolby Digital Plus with Dolby Atmos
  34. Codec ID : A_EAC3
  35. Duration : 1 h 5 min
  36. Bit rate mode : Constant
  37. Bit rate : 768 kb/s
  38. Channel(s) : 6 channels
  39. Channel layout : L R C LFE Ls Rs
  40. Sampling rate : 48.0 kHz
  41. Frame rate : 31.250 FPS (1536 SPF)
  42. Compression mode : Lossy
  43. Stream size : 361 MiB (5%)
  44. Language : English
  45. Service kind : Complete Main
  46. Default : Yes
  47. Forced : No
  48. Complexity index : 16
  49. Number of dynamic objects : 15
  50. Bed channel count : 1 channel
  51. Bed channel configuration : LFE

  52. Text #1
  53. ID : 3
  54. Format : UTF-8
  55. Codec ID : S_TEXT/UTF8
  56. Codec ID/Info : UTF-8 Plain Text
  57. Duration : 1 h 5 min
  58. Bit rate : 71 b/s
  59. Count of elements : 836
  60. Stream size : 34.1 KiB (0%)
  61. Title : English (SDH)
  62. Language : English
  63. Default : No
  64. Forced : No

  65. Text #2
  66. ID : 4
  67. Format : UTF-8
  68. Codec ID : S_TEXT/UTF8
  69. Codec ID/Info : UTF-8 Plain Text
  70. Duration : 1 h 5 min
  71. Bit rate : 4 b/s
  72. Count of elements : 50
  73. Stream size : 2.07 KiB (0%)
  74. Title : Dansk
  75. Language : Danish
  76. Default : No
  77. Forced : No

  78. Text #3
  79. ID : 5
  80. Format : UTF-8
  81. Codec ID : S_TEXT/UTF8
  82. Codec ID/Info : UTF-8 Plain Text
  83. Duration : 1 h 5 min
  84. Bit rate : 4 b/s
  85. Count of elements : 47
  86. Stream size : 2.02 KiB (0%)
  87. Title : Deutsch
  88. Language : German
  89. Default : No
  90. Forced : No

  91. Text #4
  92. ID : 6
  93. Format : UTF-8
  94. Codec ID : S_TEXT/UTF8
  95. Codec ID/Info : UTF-8 Plain Text
  96. Duration : 1 h 5 min
  97. Bit rate : 54 b/s
  98. Count of elements : 756
  99. Stream size : 26.2 KiB (0%)
  100. Title : Español
  101. Language : Spanish
  102. Default : No
  103. Forced : No

  104. Text #5
  105. ID : 7
  106. Format : UTF-8
  107. Codec ID : S_TEXT/UTF8
  108. Codec ID/Info : UTF-8 Plain Text
  109. Duration : 1 h 5 min
  110. Bit rate : 54 b/s
  111. Count of elements : 744
  112. Stream size : 26.2 KiB (0%)
  113. Title : Español (Latinoamericano)
  114. Language : Spanish
  115. Default : No
  116. Forced : No

  117. Text #6
  118. ID : 8
  119. Format : UTF-8
  120. Codec ID : S_TEXT/UTF8
  121. Codec ID/Info : UTF-8 Plain Text
  122. Duration : 1 h 5 min
  123. Bit rate : 4 b/s
  124. Count of elements : 50
  125. Stream size : 1.94 KiB (0%)
  126. Title : Suomi
  127. Language : Finnish
  128. Default : No
  129. Forced : No

  130. Text #7
  131. ID : 9
  132. Format : UTF-8
  133. Codec ID : S_TEXT/UTF8
  134. Codec ID/Info : UTF-8 Plain Text
  135. Duration : 1 h 5 min
  136. Bit rate : 4 b/s
  137. Count of elements : 60
  138. Stream size : 2.21 KiB (0%)
  139. Title : Français
  140. Language : French
  141. Default : No
  142. Forced : No

  143. Text #8
  144. ID : 10
  145. Format : UTF-8
  146. Codec ID : S_TEXT/UTF8
  147. Codec ID/Info : UTF-8 Plain Text
  148. Duration : 1 h 5 min
  149. Bit rate : 4 b/s
  150. Count of elements : 48
  151. Stream size : 2.09 KiB (0%)
  152. Title : Italiano
  153. Language : Italian
  154. Default : No
  155. Forced : No

  156. Text #9
  157. ID : 11
  158. Format : UTF-8
  159. Codec ID : S_TEXT/UTF8
  160. Codec ID/Info : UTF-8 Plain Text
  161. Duration : 1 h 5 min
  162. Bit rate : 56 b/s
  163. Count of elements : 666
  164. Stream size : 27.1 KiB (0%)
  165. Title : Japanese
  166. Language : Japanese
  167. Default : No
  168. Forced : No

  169. Text #10
  170. ID : 12
  171. Format : UTF-8
  172. Codec ID : S_TEXT/UTF8
  173. Codec ID/Info : UTF-8 Plain Text
  174. Duration : 1 h 5 min
  175. Bit rate : 57 b/s
  176. Count of elements : 767
  177. Stream size : 27.2 KiB (0%)
  178. Title : Korean
  179. Language : Korean
  180. Default : No
  181. Forced : No

  182. Text #11
  183. ID : 13
  184. Format : UTF-8
  185. Codec ID : S_TEXT/UTF8
  186. Codec ID/Info : UTF-8 Plain Text
  187. Duration : 1 h 5 min
  188. Bit rate : 3 b/s
  189. Count of elements : 40
  190. Stream size : 1.72 KiB (0%)
  191. Title : Nederlands
  192. Language : Dutch
  193. Default : No
  194. Forced : No

  195. Text #12
  196. ID : 14
  197. Format : UTF-8
  198. Codec ID : S_TEXT/UTF8
  199. Codec ID/Info : UTF-8 Plain Text
  200. Duration : 1 h 5 min
  201. Bit rate : 4 b/s
  202. Count of elements : 47
  203. Stream size : 2.10 KiB (0%)
  204. Title : Norsk
  205. Language : Norwegian
  206. Default : No
  207. Forced : No

  208. Text #13
  209. ID : 15
  210. Format : UTF-8
  211. Codec ID : S_TEXT/UTF8
  212. Codec ID/Info : UTF-8 Plain Text
  213. Duration : 1 h 5 min
  214. Bit rate : 56 b/s
  215. Count of elements : 738
  216. Stream size : 26.7 KiB (0%)
  217. Title : Polski
  218. Language : Polish
  219. Default : No
  220. Forced : No

  221. Text #14
  222. ID : 16
  223. Format : UTF-8
  224. Codec ID : S_TEXT/UTF8
  225. Codec ID/Info : UTF-8 Plain Text
  226. Duration : 1 h 5 min
  227. Bit rate : 3 b/s
  228. Count of elements : 48
  229. Stream size : 1.84 KiB (0%)
  230. Title : Português
  231. Language : Portuguese
  232. Default : No
  233. Forced : No

  234. Text #15
  235. ID : 17
  236. Format : UTF-8
  237. Codec ID : S_TEXT/UTF8
  238. Codec ID/Info : UTF-8 Plain Text
  239. Duration : 1 h 5 min
  240. Bit rate : 58 b/s
  241. Count of elements : 744
  242. Stream size : 28.0 KiB (0%)
  243. Title : Português (Brasil)
  244. Language : Portuguese
  245. Default : No
  246. Forced : No

  247. Text #16
  248. ID : 18
  249. Format : UTF-8
  250. Codec ID : S_TEXT/UTF8
  251. Codec ID/Info : UTF-8 Plain Text
  252. Duration : 1 h 5 min
  253. Bit rate : 4 b/s
  254. Count of elements : 50
  255. Stream size : 2.10 KiB (0%)
  256. Title : Svenska
  257. Language : Swedish
  258. Default : No
  259. Forced : No

  260. Text #17
  261. ID : 19
  262. Format : UTF-8
  263. Codec ID : S_TEXT/UTF8
  264. Codec ID/Info : UTF-8 Plain Text
  265. Duration : 1 h 5 min
  266. Bit rate : 49 b/s
  267. Count of elements : 767
  268. Stream size : 23.7 KiB (0%)
  269. Title : Chinese (Hong Kong)
  270. Language : Chinese
  271. Default : No
  272. Forced : No

  273. Text #18
  274. ID : 20
  275. Format : UTF-8
  276. Codec ID : S_TEXT/UTF8
  277. Codec ID/Info : UTF-8 Plain Text
  278. Duration : 1 h 5 min
  279. Bit rate : 49 b/s
  280. Count of elements : 767
  281. Stream size : 23.8 KiB (0%)
  282. Title : Chinese (Simplified)
  283. Language : Chinese
  284. Default : No
  285. Forced : No
复制代码

Happier Than Ever: A Love Letter to LA/比以往任何时候都更快乐:写给洛杉矶的情书4k Happier.Than.Ever.A.Love.Letter.to.Los.Angeles.2021.HDR.2160p.WEB.h265-4k纪录片电影下载
比以往任何时候都更快乐:写给洛杉矶的情书4k Happier.Than.Ever.A.Love.Letter.to.Los.Angeles.2021.HDR.2160p.WEB.h265简繁中字【4k HDR 7.79GB】
[Hao4k]比以往任何时候都更快乐:写给洛杉矶的情书4k Happier.Than.Ever.A.Love.Letter.to.Los.Angeles.2021.HDR.2160p.WEB.h265-KOGi.torrent (20.24 KB, 售价: 3 个K币)
回复

使用道具 举报

全部回复7

fengjianren001 发表于 2021-9-25 11:03:20

fengjianren001 2

2021-9-25 11:03:20

评分好高啊
回复 支持 1 反对 0

使用道具 举报

thp181200 发表于 2021-9-25 11:34:20

thp181200 3

2021-9-25 11:34:20

谢谢分享,好东西大家看
回复 支持 反对

使用道具 举报

lh100517 发表于 2021-9-25 20:07:24

lh100517 4

2021-9-25 20:07:24

谢谢楼主分享好资源!
回复 支持 反对

使用道具 举报

BOQIJIN 发表于 2021-9-26 08:17:43 Hao4K手机版

BOQIJIN 5

2021-9-26 08:17:43

最长的电影名。
回复 支持 反对

使用道具 举报

wangfeng1979 发表于 2021-9-26 16:44:06

wangfeng1979 6

2021-9-26 16:44:06

豆瓣评分这么高?电影简介超级少。
回复 支持 反对

使用道具 举报

cn1232826 发表于 2021-9-27 07:03:18

cn1232826 7

2021-9-27 07:03:18

不知为什么,种子文件下载后一直无法打开,请楼主关注一下,谢谢!
回复 支持 反对

使用道具 举报

bbgrnnji 发表于 2021-9-27 08:05:11

bbgrnnji 8

2021-9-27 08:05:11

这是目前我看过的最长名字的电影
回复 支持 反对

使用道具 举报

   发表回复

您需要登录后才可以回帖 登录 | 立即注册

返回列表 本版积分规则

  • 发布新帖

  • 客服/帮助

  • 手机APP

  • 返回顶部