微博 微信 手机APP

Hao4K影音

电影频道
电影封面:
片  名: A.Spark.Story
电影分类: 纪录片 动画 
国  家: 美国 
年  代: 2021年
分 辨 率: 4K(3840x2160)
电影格式: MKV|REMUX 
画质标准: HDR 
音质编码: Dolby Digital Plus Audio 
电影声道: 其他 
帧数/FPS: 23.976 帧
电影语言: 英文原版 
资源大小: 10.12 GB
导  演: Leanne DareJason Sterman
豆瓣评分: 6.7 分
中文字幕: -
剧情简介: -
A.Spark.Story.2021.HDR.2160p.WEB.h265纪录片信息
  1. Video
  2. ID : 1
  3. Format : HEVC
  4. Format/Info : High Efficiency Video Coding
  5. Format profile : Main 10@L5@High
  6. HDR format : SMPTE ST 2086, HDR10 compatible
  7. Codec ID : V_MPEGH/ISO/HEVC
  8. Duration : 1 h 26 min
  9. Bit rate : 16.2 Mb/s
  10. Width : 3 840 pixels
  11. Height : 2 160 pixels
  12. Display aspect ratio : 16:9
  13. Frame rate mode : Constant
  14. Frame rate : 23.976 (24000/1001) FPS
  15. Color space : YUV
  16. Chroma subsampling : 4:2:0
  17. Bit depth : 10 bits
  18. Bits/(Pixel*Frame) : 0.081
  19. Stream size : 9.84 GiB (98%)
  20. Language : English
  21. Default : Yes
  22. Forced : No
  23. Color range : Limited
  24. Color primaries : BT.2020
  25. Transfer characteristics : PQ
  26. Matrix coefficients : BT.2020 non-constant
  27. Mastering display color primaries : Display P3
  28. Mastering display luminance : min: 0.0000 cd/m2, max: 1000 cd/m2

  29. Audio
  30. ID : 2
  31. Format : E-AC-3
  32. Format/Info : Enhanced AC-3
  33. Commercial name : Dolby Digital Plus
  34. Codec ID : A_EAC3
  35. Duration : 1 h 26 min
  36. Bit rate mode : Constant
  37. Bit rate : 256 kb/s
  38. Channel(s) : 6 channels
  39. Channel layout : L R C LFE Ls Rs
  40. Sampling rate : 48.0 kHz
  41. Frame rate : 31.250 FPS (1536 SPF)
  42. Compression mode : Lossy
  43. Stream size : 159 MiB (2%)
  44. Language : English
  45. Service kind : Complete Main
  46. Default : Yes
  47. Forced : No

  48. Text #1
  49. ID : 3
  50. Format : UTF-8
  51. Codec ID : S_TEXT/UTF8
  52. Codec ID/Info : UTF-8 Plain Text
  53. Duration : 1 h 22 min
  54. Bit rate : 127 b/s
  55. Count of elements : 1422
  56. Stream size : 77.3 KiB (0%)
  57. Title : English (SDH)
  58. Language : English
  59. Default : No
  60. Forced : No

  61. Text #2
  62. ID : 4
  63. Format : UTF-8
  64. Codec ID : S_TEXT/UTF8
  65. Codec ID/Info : UTF-8 Plain Text
  66. Duration : 1 h 26 min
  67. Bit rate : 109 b/s
  68. Count of elements : 1258
  69. Stream size : 69.2 KiB (0%)
  70. Title : Dansk
  71. Language : Danish
  72. Default : No
  73. Forced : No

  74. Text #3
  75. ID : 5
  76. Format : UTF-8
  77. Codec ID : S_TEXT/UTF8
  78. Codec ID/Info : UTF-8 Plain Text
  79. Duration : 1 h 26 min
  80. Bit rate : 105 b/s
  81. Count of elements : 1417
  82. Stream size : 66.8 KiB (0%)
  83. Title : Deutsch
  84. Language : German
  85. Default : No
  86. Forced : No

  87. Text #4
  88. ID : 6
  89. Format : UTF-8
  90. Codec ID : S_TEXT/UTF8
  91. Codec ID/Info : UTF-8 Plain Text
  92. Duration : 1 h 26 min
  93. Bit rate : 110 b/s
  94. Count of elements : 1449
  95. Stream size : 69.9 KiB (0%)
  96. Title : Español (Latinoamericano)
  97. Language : Spanish
  98. Default : No
  99. Forced : No

  100. Text #5
  101. ID : 7
  102. Format : UTF-8
  103. Codec ID : S_TEXT/UTF8
  104. Codec ID/Info : UTF-8 Plain Text
  105. Duration : 1 h 26 min
  106. Bit rate : 110 b/s
  107. Count of elements : 1459
  108. Stream size : 69.9 KiB (0%)
  109. Title : Español
  110. Language : Spanish
  111. Default : No
  112. Forced : No

  113. Text #6
  114. ID : 8
  115. Format : UTF-8
  116. Codec ID : S_TEXT/UTF8
  117. Codec ID/Info : UTF-8 Plain Text
  118. Duration : 1 h 26 min
  119. Bit rate : 90 b/s
  120. Count of elements : 1449
  121. Stream size : 57.4 KiB (0%)
  122. Title : Suomi
  123. Language : Finnish
  124. Default : No
  125. Forced : No

  126. Text #7
  127. ID : 9
  128. Format : UTF-8
  129. Codec ID : S_TEXT/UTF8
  130. Codec ID/Info : UTF-8 Plain Text
  131. Duration : 1 h 26 min
  132. Bit rate : 99 b/s
  133. Count of elements : 1340
  134. Stream size : 62.7 KiB (0%)
  135. Title : Français
  136. Language : French
  137. Default : No
  138. Forced : No

  139. Text #8
  140. ID : 10
  141. Format : UTF-8
  142. Codec ID : S_TEXT/UTF8
  143. Codec ID/Info : UTF-8 Plain Text
  144. Duration : 1 h 26 min
  145. Bit rate : 111 b/s
  146. Count of elements : 1443
  147. Stream size : 70.7 KiB (0%)
  148. Title : Italiano
  149. Language : Italian
  150. Default : No
  151. Forced : No

  152. Text #9
  153. ID : 11
  154. Format : UTF-8
  155. Codec ID : S_TEXT/UTF8
  156. Codec ID/Info : UTF-8 Plain Text
  157. Duration : 1 h 26 min
  158. Bit rate : 92 b/s
  159. Count of elements : 1253
  160. Stream size : 58.4 KiB (0%)
  161. Title : Japanese
  162. Language : Japanese
  163. Default : No
  164. Forced : No

  165. Text #10
  166. ID : 12
  167. Format : UTF-8
  168. Codec ID : S_TEXT/UTF8
  169. Codec ID/Info : UTF-8 Plain Text
  170. Duration : 1 h 26 min
  171. Bit rate : 115 b/s
  172. Count of elements : 1488
  173. Stream size : 72.9 KiB (0%)
  174. Title : Korean
  175. Language : Korean
  176. Default : No
  177. Forced : No

  178. Text #11
  179. ID : 13
  180. Format : UTF-8
  181. Codec ID : S_TEXT/UTF8
  182. Codec ID/Info : UTF-8 Plain Text
  183. Duration : 1 h 26 min
  184. Bit rate : 78 b/s
  185. Count of elements : 1123
  186. Stream size : 49.5 KiB (0%)
  187. Title : Nederlands
  188. Language : Dutch
  189. Default : No
  190. Forced : No

  191. Text #12
  192. ID : 14
  193. Format : UTF-8
  194. Codec ID : S_TEXT/UTF8
  195. Codec ID/Info : UTF-8 Plain Text
  196. Duration : 1 h 26 min
  197. Bit rate : 105 b/s
  198. Count of elements : 1444
  199. Stream size : 67.0 KiB (0%)
  200. Title : Norsk
  201. Language : Norwegian
  202. Default : No
  203. Forced : No

  204. Text #13
  205. ID : 15
  206. Format : UTF-8
  207. Codec ID : S_TEXT/UTF8
  208. Codec ID/Info : UTF-8 Plain Text
  209. Duration : 1 h 26 min
  210. Bit rate : 103 b/s
  211. Count of elements : 1463
  212. Stream size : 65.2 KiB (0%)
  213. Title : Polski
  214. Language : Polish
  215. Default : No
  216. Forced : No

  217. Text #14
  218. ID : 16
  219. Format : UTF-8
  220. Codec ID : S_TEXT/UTF8
  221. Codec ID/Info : UTF-8 Plain Text
  222. Duration : 1 h 26 min
  223. Bit rate : 117 b/s
  224. Count of elements : 1461
  225. Stream size : 74.1 KiB (0%)
  226. Title : Português (Brasil)
  227. Language : Portuguese
  228. Default : No
  229. Forced : No

  230. Text #15
  231. ID : 17
  232. Format : UTF-8
  233. Codec ID : S_TEXT/UTF8
  234. Codec ID/Info : UTF-8 Plain Text
  235. Duration : 1 h 26 min
  236. Bit rate : 108 b/s
  237. Count of elements : 1456
  238. Stream size : 68.7 KiB (0%)
  239. Title : Português
  240. Language : Portuguese
  241. Default : No
  242. Forced : No

  243. Text #16
  244. ID : 18
  245. Format : UTF-8
  246. Codec ID : S_TEXT/UTF8
  247. Codec ID/Info : UTF-8 Plain Text
  248. Duration : 1 h 26 min
  249. Bit rate : 98 b/s
  250. Count of elements : 1447
  251. Stream size : 62.1 KiB (0%)
  252. Title : Svenska
  253. Language : Swedish
  254. Default : No
  255. Forced : No

  256. Text #17
  257. ID : 19
  258. Format : UTF-8
  259. Codec ID : S_TEXT/UTF8
  260. Codec ID/Info : UTF-8 Plain Text
  261. Duration : 1 h 26 min
  262. Bit rate : 85 b/s
  263. Count of elements : 1485
  264. Stream size : 54.3 KiB (0%)
  265. Title : Chinese (Hong Kong)
  266. Language : Chinese
  267. Default : No
  268. Forced : No

  269. Text #18
  270. ID : 20
  271. Format : UTF-8
  272. Codec ID : S_TEXT/UTF8
  273. Codec ID/Info : UTF-8 Plain Text
  274. Duration : 1 h 26 min
  275. Bit rate : 87 b/s
  276. Count of elements : 1480
  277. Stream size : 55.4 KiB (0%)
  278. Title : Chinese (Simplified)
  279. Language : Chinese
  280. Default : No
  281. Forced : No
复制代码

A.Spark.Story.2021.HDR.2160p.WEB.h265纪录片下载

A.Spark.Story.2021.HDR.2160p.WEB.h265简繁中字【4k HDR 10.12GB】
[Hao4k]A.Spark.Story.2021.HDR.2160p.WEB.h265-KOGi.torrent (13.42 KB)
回复

使用道具 举报

   发表回复

您需要登录后才可以回帖 登录 | 立即注册

返回列表 本版积分规则

  • 发布新帖

  • 客服/帮助

  • 手机APP

  • 返回顶部