微博 微信

Hao4K影音

电视剧频道
电视剧封面:
电视剧名: Wolfboy and the Everything Factory Season
年  代: 2021  
国  家: 美国
类  别: 动画 
语  言: 英语
字  幕: 英文原版
上映日期: 2021-09-24
文件格式: mkv    
视频效果: 4K(3840x2160)    
资源大小: 33.77 GB
片  长: -
导  演: -
剧情简介: William Wolf is no ordinary human boy. Down in the magical Spryte realm of The Everything Factory, he’s Wolfboy. And with his new Spryte friends, he learns his vivid imagination and limitless creativity have the power to change the world.
Wolfboy.and.the.Everything.Factory.S01.2160p.ATVP.WEB-DL.DDP5.1.Atmos.DV.MKV.x265美剧信息
  1. Video
  2. ID : 1
  3. Format : HEVC
  4. Format/Info : High Efficiency Video Coding
  5. Format profile : Main 10@L5@High
  6. HDR format : Dolby Vision, Version 1.0, dvhe.05.06, BL+RPU
  7. Codec ID : V_MPEGH/ISO/HEVC
  8. Duration : 25 min 27 s
  9. Bit rate : 19.7 Mb/s
  10. Width : 3 840 pixels
  11. Height : 2 160 pixels
  12. Display aspect ratio : 16:9
  13. Frame rate mode : Constant
  14. Frame rate : 23.976 (24000/1001) FPS
  15. Color space : YUV
  16. Chroma subsampling : 4:2:0
  17. Bit depth : 10 bits
  18. Bits/(Pixel*Frame) : 0.099
  19. Stream size : 3.51 GiB (96%)
  20. Language : English
  21. Default : Yes
  22. Forced : No

  23. Audio
  24. ID : 2
  25. Format : E-AC-3 JOC
  26. Format/Info : Enhanced AC-3 with Joint Object Coding
  27. Commercial name : Dolby Digital Plus with Dolby Atmos
  28. Codec ID : A_EAC3
  29. Duration : 25 min 27 s
  30. Bit rate mode : Constant
  31. Bit rate : 768 kb/s
  32. Channel(s) : 6 channels
  33. Channel layout : L R C LFE Ls Rs
  34. Sampling rate : 48.0 kHz
  35. Frame rate : 31.250 FPS (1536 SPF)
  36. Compression mode : Lossy
  37. Stream size : 140 MiB (4%)
  38. Language : English
  39. Service kind : Complete Main
  40. Default : Yes
  41. Forced : No
  42. Complexity index : 16
  43. Number of dynamic objects : 15
  44. Bed channel count : 1 channel
  45. Bed channel configuration : LFE

  46. Text #1
  47. ID : 3
  48. Format : UTF-8
  49. Codec ID : S_TEXT/UTF8
  50. Codec ID/Info : UTF-8 Plain Text
  51. Duration : 21 min 31 s
  52. Bit rate : 54 b/s
  53. Count of elements : 291
  54. Stream size : 8.59 KiB (0%)
  55. Language : English
  56. Default : No
  57. Forced : No

  58. Text #2
  59. ID : 4
  60. Format : UTF-8
  61. Codec ID : S_TEXT/UTF8
  62. Codec ID/Info : UTF-8 Plain Text
  63. Duration : 22 min 47 s
  64. Bit rate : 61 b/s
  65. Count of elements : 379
  66. Stream size : 10.3 KiB (0%)
  67. Title : SDH
  68. Language : English
  69. Default : No
  70. Forced : No

  71. Text #3
  72. ID : 5
  73. Format : UTF-8
  74. Codec ID : S_TEXT/UTF8
  75. Codec ID/Info : UTF-8 Plain Text
  76. Duration : 24 min 38 s
  77. Bit rate : 67 b/s
  78. Count of elements : 295
  79. Stream size : 12.1 KiB (0%)
  80. Language : Arabic
  81. Default : No
  82. Forced : No

  83. Text #4
  84. ID : 6
  85. Format : UTF-8
  86. Codec ID : S_TEXT/UTF8
  87. Codec ID/Info : UTF-8 Plain Text
  88. Duration : 24 min 32 s
  89. Bit rate : 67 b/s
  90. Count of elements : 288
  91. Stream size : 12.2 KiB (0%)
  92. Language : Bulgarian
  93. Default : No
  94. Forced : No

  95. Text #5
  96. ID : 7
  97. Format : UTF-8
  98. Codec ID : S_TEXT/UTF8
  99. Codec ID/Info : UTF-8 Plain Text
  100. Duration : 24 min 32 s
  101. Bit rate : 42 b/s
  102. Count of elements : 294
  103. Stream size : 7.56 KiB (0%)
  104. Title : Simplified
  105. Language : Chinese
  106. Default : No
  107. Forced : No

  108. Text #6
  109. ID : 8
  110. Format : UTF-8
  111. Codec ID : S_TEXT/UTF8
  112. Codec ID/Info : UTF-8 Plain Text
  113. Duration : 24 min 38 s
  114. Bit rate : 47 b/s
  115. Count of elements : 295
  116. Stream size : 8.49 KiB (0%)
  117. Title : Traditional
  118. Language : Chinese
  119. Default : No
  120. Forced : No
复制代码

Wolfboy.and.the.Everything.Factory.S01.2160p.ATVP.WEB-DL.DDP5.1.Atmos.DV.MKV.x265美剧下载

Wolfboy.and.the.Everything.Factory.S01.2160p.ATVP.WEB-DL.DDP5.1.Atmos.DV.MKV.x265杜比视界简繁中字【33.77 GB】
[Hao4k]Wolfboy.and.the.Everything.Factory.S01.2160p.ATVP.WEB-DL.DDP5.1.Atmos.DV.MKV.x265-TEPES.torrent (44.43 KB)
回复

使用道具 举报

   发表回复

您需要登录后才可以回帖 登录 | 立即注册

返回列表 本版积分规则

  • 在线客服

  • 返回顶部