微博 微信 手机APP

Hao4K影音

电视剧频道
电视剧封面:
电视剧名: 心灵猎人4k
年  代: 2017  
国  家: 美国
类  别: 犯罪 惊悚 剧情 
语  言: 英语
字  幕: 英文原版
上映日期: 2017-10-13
文件格式: mkv    
视频效果: 4K(3840x2160)    
资源大小: 55.19 GB
片  长: -
导  演: 大卫·芬奇 / 安德鲁·道格拉斯 / 阿斯弗·卡帕迪尔 / 托比亚斯·林道赫姆
剧情简介:  该剧根据1996年前FBI探员约翰·道格拉斯(JohnDouglas)和马克·欧夏克(Mark Olshaker)的著作《心理神探:美国联邦调查局系列犯罪破案揭秘》(MindHunter: Inside the FBI\'s Elite Serial Crime Unit)改编。退休后的道格拉斯深入研究犯罪心理学,美剧《汉尼拔》(Hannibal)和《犯罪心理》(CriminalMinds)中的角色刻画也参考了书中的很多案例。
破案神探(港/台) / 读心神探 / 心理神探 / 心灵猎手 / Mind Hunter/心灵猎人4k Mindhunter.S01.2160p.NF.WEB-DL.x265.10bit.HDR.DDP5.1美剧信息
  1. Video
  2. ID : 1
  3. Format : HEVC
  4. Format/Info : High Efficiency Video Coding
  5. Format profile : Main 10@L5@Main
  6. HDR format : SMPTE ST 2086, HDR10 compatible
  7. Codec ID : V_MPEGH/ISO/HEVC
  8. Duration : 59 min 33 s
  9. Bit rate : 15.5 Mb/s
  10. Width : 3 840 pixels
  11. Height : 2 160 pixels
  12. Display aspect ratio : 16:9
  13. Frame rate mode : Constant
  14. Frame rate : 23.976 (24000/1001) FPS
  15. Color space : YUV
  16. Chroma subsampling : 4:2:0 (Type 2)
  17. Bit depth : 10 bits
  18. Bits/(Pixel*Frame) : 0.078
  19. Stream size : 6.45 GiB (96%)
  20. Default : Yes
  21. Forced : No
  22. Color range : Limited
  23. Color primaries : BT.2020
  24. Transfer characteristics : PQ
  25. Matrix coefficients : BT.2020 non-constant
  26. Mastering display color primaries : Display P3
  27. Mastering display luminance : min: 0.0050 cd/m2, max: 4000 cd/m2
  28. Maximum Content Light Level : 1761 cd/m2
  29. Maximum Frame-Average Light Level : 182 cd/m2

  30. Audio
  31. ID : 2
  32. Format : E-AC-3
  33. Format/Info : Enhanced AC-3
  34. Commercial name : Dolby Digital Plus
  35. Codec ID : A_EAC3
  36. Duration : 1 h 0 min
  37. Bit rate mode : Constant
  38. Bit rate : 640 kb/s
  39. Channel(s) : 6 channels
  40. Channel layout : L R C LFE Ls Rs
  41. Sampling rate : 48.0 kHz
  42. Frame rate : 31.250 FPS (1536 SPF)
  43. Compression mode : Lossy
  44. Stream size : 276 MiB (4%)
  45. Language : English
  46. Service kind : Complete Main
  47. Default : Yes
  48. Forced : No

  49. Text #1
  50. ID : 3
  51. Format : UTF-8
  52. Codec ID : S_TEXT/UTF8
  53. Codec ID/Info : UTF-8 Plain Text
  54. Duration : 57 min 9 s
  55. Bit rate : 86 b/s
  56. Count of elements : 963
  57. Stream size : 36.2 KiB (0%)
  58. Title : SDH
  59. Language : English
  60. Default : No
  61. Forced : No

  62. Text #2
  63. ID : 4
  64. Format : UTF-8
  65. Codec ID : S_TEXT/UTF8
  66. Codec ID/Info : UTF-8 Plain Text
  67. Duration : 56 min 53 s
  68. Bit rate : 134 b/s
  69. Count of elements : 990
  70. Stream size : 55.9 KiB (0%)
  71. Language : Arabic
  72. Default : No
  73. Forced : No

  74. Text #3
  75. ID : 5
  76. Format : UTF-8
  77. Codec ID : S_TEXT/UTF8
  78. Codec ID/Info : UTF-8 Plain Text
  79. Duration : 59 min 4 s
  80. Bit rate : 69 b/s
  81. Count of elements : 1074
  82. Stream size : 30.2 KiB (0%)
  83. Language : Czech
  84. Default : No
  85. Forced : No

  86. Text #4
  87. ID : 6
  88. Format : UTF-8
  89. Codec ID : S_TEXT/UTF8
  90. Codec ID/Info : UTF-8 Plain Text
  91. Duration : 56 min 50 s
  92. Bit rate : 79 b/s
  93. Count of elements : 947
  94. Stream size : 33.1 KiB (0%)
  95. Language : Danish
  96. Default : No
  97. Forced : No

  98. Text #5
  99. ID : 7
  100. Format : UTF-8
  101. Codec ID : S_TEXT/UTF8
  102. Codec ID/Info : UTF-8 Plain Text
  103. Duration : 56 min 50 s
  104. Bit rate : 81 b/s
  105. Count of elements : 949
  106. Stream size : 34.0 KiB (0%)
  107. Language : German
  108. Default : No
  109. Forced : No

  110. Text #6
  111. ID : 8
  112. Format : UTF-8
  113. Codec ID : S_TEXT/UTF8
  114. Codec ID/Info : UTF-8 Plain Text
  115. Duration : 56 min 53 s
  116. Bit rate : 135 b/s
  117. Count of elements : 971
  118. Stream size : 56.5 KiB (0%)
  119. Language : Greek
  120. Default : No
  121. Forced : No

  122. Text #7
  123. ID : 9
  124. Format : UTF-8
  125. Codec ID : S_TEXT/UTF8
  126. Codec ID/Info : UTF-8 Plain Text
  127. Duration : 56 min 53 s
  128. Bit rate : 80 b/s
  129. Count of elements : 980
  130. Stream size : 33.5 KiB (0%)
  131. Language : Spanish
  132. Default : No
  133. Forced : No

  134. Text #8
  135. ID : 10
  136. Format : UTF-8
  137. Codec ID : S_TEXT/UTF8
  138. Codec ID/Info : UTF-8 Plain Text
  139. Duration : 56 min 50 s
  140. Bit rate : 72 b/s
  141. Count of elements : 977
  142. Stream size : 30.1 KiB (0%)
  143. Language : Spanish
  144. Default : No
  145. Forced : No

  146. Text #9
  147. ID : 11
  148. Format : UTF-8
  149. Codec ID : S_TEXT/UTF8
  150. Codec ID/Info : UTF-8 Plain Text
  151. Duration : 56 min 50 s
  152. Bit rate : 71 b/s
  153. Count of elements : 926
  154. Stream size : 29.6 KiB (0%)
  155. Language : Finnish
  156. Default : No
  157. Forced : No

  158. Text #10
  159. ID : 12
  160. Format : UTF-8
  161. Codec ID : S_TEXT/UTF8
  162. Codec ID/Info : UTF-8 Plain Text
  163. Duration : 56 min 53 s
  164. Bit rate : 78 b/s
  165. Count of elements : 956
  166. Stream size : 32.8 KiB (0%)
  167. Language : French
  168. Default : No
  169. Forced : No

  170. Text #11
  171. ID : 13
  172. Format : UTF-8
  173. Codec ID : S_TEXT/UTF8
  174. Codec ID/Info : UTF-8 Plain Text
  175. Duration : 56 min 55 s
  176. Bit rate : 120 b/s
  177. Count of elements : 981
  178. Stream size : 50.3 KiB (0%)
  179. Language : Hebrew
  180. Default : No
  181. Forced : No

  182. Text #12
  183. ID : 14
  184. Format : UTF-8
  185. Codec ID : S_TEXT/UTF8
  186. Codec ID/Info : UTF-8 Plain Text
  187. Duration : 58 min 59 s
  188. Bit rate : 70 b/s
  189. Count of elements : 931
  190. Stream size : 30.3 KiB (0%)
  191. Language : Croatian
  192. Default : No
  193. Forced : No

  194. Text #13
  195. ID : 15
  196. Format : UTF-8
  197. Codec ID : S_TEXT/UTF8
  198. Codec ID/Info : UTF-8 Plain Text
  199. Duration : 59 min 6 s
  200. Bit rate : 73 b/s
  201. Count of elements : 931
  202. Stream size : 31.8 KiB (0%)
  203. Language : Hungarian
  204. Default : No
  205. Forced : No

  206. Text #14
  207. ID : 16
  208. Format : UTF-8
  209. Codec ID : S_TEXT/UTF8
  210. Codec ID/Info : UTF-8 Plain Text
  211. Duration : 57 min 6 s
  212. Bit rate : 82 b/s
  213. Count of elements : 917
  214. Stream size : 34.5 KiB (0%)
  215. Language : Indonesian
  216. Default : No
  217. Forced : No

  218. Text #15
  219. ID : 17
  220. Format : UTF-8
  221. Codec ID : S_TEXT/UTF8
  222. Codec ID/Info : UTF-8 Plain Text
  223. Duration : 56 min 50 s
  224. Bit rate : 76 b/s
  225. Count of elements : 942
  226. Stream size : 32.0 KiB (0%)
  227. Language : Italian
  228. Default : No
  229. Forced : No

  230. Text #16
  231. ID : 18
  232. Format : UTF-8
  233. Codec ID : S_TEXT/UTF8
  234. Codec ID/Info : UTF-8 Plain Text
  235. Duration : 59 min 10 s
  236. Bit rate : 68 b/s
  237. Count of elements : 938
  238. Stream size : 29.5 KiB (0%)
  239. Language : Japanese
  240. Default : No
  241. Forced : No

  242. Text #17
  243. ID : 19
  244. Format : UTF-8
  245. Codec ID : S_TEXT/UTF8
  246. Codec ID/Info : UTF-8 Plain Text
  247. Duration : 56 min 53 s
  248. Bit rate : 85 b/s
  249. Count of elements : 991
  250. Stream size : 35.6 KiB (0%)
  251. Language : Korean
  252. Default : No
  253. Forced : No

  254. Text #18
  255. ID : 20
  256. Format : UTF-8
  257. Codec ID : S_TEXT/UTF8
  258. Codec ID/Info : UTF-8 Plain Text
  259. Duration : 56 min 50 s
  260. Bit rate : 70 b/s
  261. Count of elements : 967
  262. Stream size : 29.2 KiB (0%)
  263. Language : Norwegian Bokmal
  264. Default : No
  265. Forced : No

  266. Text #19
  267. ID : 21
  268. Format : UTF-8
  269. Codec ID : S_TEXT/UTF8
  270. Codec ID/Info : UTF-8 Plain Text
  271. Duration : 56 min 50 s
  272. Bit rate : 76 b/s
  273. Count of elements : 880
  274. Stream size : 31.7 KiB (0%)
  275. Language : Dutch
  276. Default : No
  277. Forced : No

  278. Text #20
  279. ID : 22
  280. Format : UTF-8
  281. Codec ID : S_TEXT/UTF8
  282. Codec ID/Info : UTF-8 Plain Text
  283. Duration : 56 min 53 s
  284. Bit rate : 70 b/s
  285. Count of elements : 959
  286. Stream size : 29.3 KiB (0%)
  287. Language : Polish
  288. Default : No
  289. Forced : No

  290. Text #21
  291. ID : 23
  292. Format : UTF-8
  293. Codec ID : S_TEXT/UTF8
  294. Codec ID/Info : UTF-8 Plain Text
  295. Duration : 56 min 50 s
  296. Bit rate : 78 b/s
  297. Count of elements : 971
  298. Stream size : 32.5 KiB (0%)
  299. Title : Brasil
  300. Language : Portuguese
  301. Default : No
  302. Forced : No

  303. Text #22
  304. ID : 24
  305. Format : UTF-8
  306. Codec ID : S_TEXT/UTF8
  307. Codec ID/Info : UTF-8 Plain Text
  308. Duration : 56 min 53 s
  309. Bit rate : 81 b/s
  310. Count of elements : 984
  311. Stream size : 33.9 KiB (0%)
  312. Language : Portuguese
  313. Default : No
  314. Forced : No

  315. Text #23
  316. ID : 25
  317. Format : UTF-8
  318. Codec ID : S_TEXT/UTF8
  319. Codec ID/Info : UTF-8 Plain Text
  320. Duration : 56 min 50 s
  321. Bit rate : 83 b/s
  322. Count of elements : 983
  323. Stream size : 34.9 KiB (0%)
  324. Language : Romanian
  325. Default : No
  326. Forced : No

  327. Text #24
  328. ID : 26
  329. Format : UTF-8
  330. Codec ID : S_TEXT/UTF8
  331. Codec ID/Info : UTF-8 Plain Text
  332. Duration : 56 min 53 s
  333. Bit rate : 131 b/s
  334. Count of elements : 970
  335. Stream size : 54.9 KiB (0%)
  336. Language : Russian
  337. Default : No
  338. Forced : No

  339. Text #25
  340. ID : 27
  341. Format : UTF-8
  342. Codec ID : S_TEXT/UTF8
  343. Codec ID/Info : UTF-8 Plain Text
  344. Duration : 56 min 50 s
  345. Bit rate : 78 b/s
  346. Count of elements : 872
  347. Stream size : 32.8 KiB (0%)
  348. Language : Swedish
  349. Default : No
  350. Forced : No

  351. Text #26
  352. ID : 28
  353. Format : UTF-8
  354. Codec ID : S_TEXT/UTF8
  355. Codec ID/Info : UTF-8 Plain Text
  356. Duration : 56 min 53 s
  357. Bit rate : 218 b/s
  358. Count of elements : 990
  359. Stream size : 91.0 KiB (0%)
  360. Language : Thai
  361. Default : No
  362. Forced : No

  363. Text #27
  364. ID : 29
  365. Format : UTF-8
  366. Codec ID : S_TEXT/UTF8
  367. Codec ID/Info : UTF-8 Plain Text
  368. Duration : 56 min 53 s
  369. Bit rate : 79 b/s
  370. Count of elements : 968
  371. Stream size : 33.0 KiB (0%)
  372. Language : Turkish
  373. Default : No
  374. Forced : No

  375. Text #28
  376. ID : 30
  377. Format : UTF-8
  378. Codec ID : S_TEXT/UTF8
  379. Codec ID/Info : UTF-8 Plain Text
  380. Duration : 56 min 53 s
  381. Bit rate : 107 b/s
  382. Count of elements : 985
  383. Stream size : 44.6 KiB (0%)
  384. Language : Vietnamese
  385. Default : No
  386. Forced : No

  387. Text #29
  388. ID : 31
  389. Format : UTF-8
  390. Codec ID : S_TEXT/UTF8
  391. Codec ID/Info : UTF-8 Plain Text
  392. Duration : 56 min 53 s
  393. Bit rate : 78 b/s
  394. Count of elements : 987
  395. Stream size : 32.5 KiB (0%)
  396. Title : Simplified
  397. Language : Chinese
  398. Default : No
  399. Forced : No

  400. Text #30
  401. ID : 32
  402. Format : UTF-8
  403. Codec ID : S_TEXT/UTF8
  404. Codec ID/Info : UTF-8 Plain Text
  405. Duration : 56 min 53 s
  406. Bit rate : 82 b/s
  407. Count of elements : 991
  408. Stream size : 34.5 KiB (0%)
  409. Title : Traditional
  410. Language : Chinese
  411. Default : No
  412. Forced : No
复制代码


破案神探(港/台) / 读心神探 / 心理神探 / 心灵猎手 / Mind Hunter/心灵猎人4k Mindhunter.S01.2160p.NF.WEB-DL.x265.10bit.HDR.DDP5.1美剧下载

心灵猎人4k Mindhunter.S01.2160p.NF.WEB-DL.x265.10bit.HDR.DDP5.1简繁中字【55.19 GB】
[Hao4k]心灵猎人 第一季4k Mindhunter.S01.2160p.NF.WEB-DL.x265.10bit.HDR.DDP5.1-SiC.torrent (70.56 KB)
回复

使用道具 举报

   发表回复

您需要登录后才可以回帖 登录 | 立即注册

返回列表 本版积分规则

  • 发布新帖

  • 客服/帮助

  • 手机APP

  • 返回顶部