微博 微信

Hao4K影音

电视剧频道
电视剧封面:
电视剧名: 星球大战:幻境4k
年  代: 2021  
国  家: 美国
类  别: 动作 科幻 冒险 奇幻 动画 
语  言: 英语
字  幕: 英文原版
上映日期: 2021-09-22
文件格式: mkv    
视频效果: 4K(3840x2160)    
资源大小: 16.49 GB
片  长: -
导  演: 神山健治 / 今石洋之 / 水野貴信 / 五十岚祐贵 / 大塚雅彦 / 垪和等 / Abel Gongora / 崔恩映
剧情简介: 卢卡斯影业将打造全新星战短片合集《星球大战:幻象》(Star Wars: Visions,暂译)。10部短片将由日本几家不同的动漫工作室创作,将为星战引入不同文化视角。
星球大战:幻象 / 星球大战:异象/星球大战:幻境4k Star.Wars.Visions.S01.JAPANESE.2160p.WEB-DL.x265.10bit.HDR.DDP5.1美剧信息
  1. Video
  2. ID : 1
  3. Format : HEVC
  4. Format/Info : High Efficiency Video Coding
  5. Format profile : Main 10@L5@High
  6. HDR format : SMPTE ST 2086, HDR10 compatible
  7. Codec ID : V_MPEGH/ISO/HEVC
  8. Duration : 21 min 41 s
  9. Bit rate : 16.3 Mb/s
  10. Width : 3 840 pixels
  11. Height : 2 160 pixels
  12. Display aspect ratio : 16:9
  13. Frame rate mode : Constant
  14. Frame rate : 24.000 FPS
  15. Color space : YUV
  16. Chroma subsampling : 4:2:0
  17. Bit depth : 10 bits
  18. Bits/(Pixel*Frame) : 0.082
  19. Stream size : 2.46 GiB (97%)
  20. Language : Japanese
  21. Default : Yes
  22. Forced : No
  23. Color range : Limited
  24. Color primaries : BT.2020
  25. Transfer characteristics : PQ
  26. Matrix coefficients : BT.2020 non-constant
  27. Mastering display color primaries : BT.2020
  28. Mastering display luminance : min: 0.0001 cd/m2, max: 1000 cd/m2

  29. Audio #1
  30. ID : 2
  31. Format : E-AC-3
  32. Format/Info : Enhanced AC-3
  33. Commercial name : Dolby Digital Plus
  34. Codec ID : A_EAC3
  35. Duration : 21 min 41 s
  36. Bit rate mode : Constant
  37. Bit rate : 256 kb/s
  38. Channel(s) : 6 channels
  39. Channel layout : L R C LFE Ls Rs
  40. Sampling rate : 48.0 kHz
  41. Frame rate : 31.250 FPS (1536 SPF)
  42. Compression mode : Lossy
  43. Stream size : 39.7 MiB (2%)
  44. Language : Japanese
  45. Service kind : Complete Main
  46. Default : Yes
  47. Forced : No

  48. Audio #2
  49. ID : 3
  50. Format : E-AC-3
  51. Format/Info : Enhanced AC-3
  52. Commercial name : Dolby Digital Plus
  53. Codec ID : A_EAC3
  54. Duration : 21 min 41 s
  55. Bit rate mode : Constant
  56. Bit rate : 256 kb/s
  57. Channel(s) : 6 channels
  58. Channel layout : L R C LFE Ls Rs
  59. Sampling rate : 48.0 kHz
  60. Frame rate : 31.250 FPS (1536 SPF)
  61. Compression mode : Lossy
  62. Stream size : 39.7 MiB (2%)
  63. Language : English
  64. Service kind : Complete Main
  65. Default : Yes
  66. Forced : No

  67. Text #1
  68. ID : 4
  69. Format : UTF-8
  70. Codec ID : S_TEXT/UTF8
  71. Codec ID/Info : UTF-8 Plain Text
  72. Duration : 20 min 54 s
  73. Bit rate : 56 b/s
  74. Count of elements : 241
  75. Stream size : 8.64 KiB (0%)
  76. Title : English (forced)
  77. Language : English
  78. Default : No
  79. Forced : Yes

  80. Text #2
  81. ID : 5
  82. Format : UTF-8
  83. Codec ID : S_TEXT/UTF8
  84. Codec ID/Info : UTF-8 Plain Text
  85. Duration : 21 min 18 s
  86. Bit rate : 44 b/s
  87. Count of elements : 182
  88. Stream size : 7.01 KiB (0%)
  89. Title : Dansk
  90. Language : Danish
  91. Default : No
  92. Forced : No

  93. Text #3
  94. ID : 6
  95. Format : UTF-8
  96. Codec ID : S_TEXT/UTF8
  97. Codec ID/Info : UTF-8 Plain Text
  98. Duration : 21 min 25 s
  99. Bit rate : 42 b/s
  100. Count of elements : 177
  101. Stream size : 6.64 KiB (0%)
  102. Title : Deutsch
  103. Language : German
  104. Default : No
  105. Forced : No

  106. Text #4
  107. ID : 7
  108. Format : UTF-8
  109. Codec ID : S_TEXT/UTF8
  110. Codec ID/Info : UTF-8 Plain Text
  111. Duration : 21 min 11 s
  112. Bit rate : 45 b/s
  113. Count of elements : 176
  114. Stream size : 7.12 KiB (0%)
  115. Title : Español
  116. Language : Spanish
  117. Default : No
  118. Forced : No

  119. Text #5
  120. ID : 8
  121. Format : UTF-8
  122. Codec ID : S_TEXT/UTF8
  123. Codec ID/Info : UTF-8 Plain Text
  124. Duration : 21 min 18 s
  125. Bit rate : 42 b/s
  126. Count of elements : 171
  127. Stream size : 6.66 KiB (0%)
  128. Title : Español (Latinoamericano)
  129. Language : Spanish
  130. Default : No
  131. Forced : No

  132. Text #6
  133. ID : 9
  134. Format : UTF-8
  135. Codec ID : S_TEXT/UTF8
  136. Codec ID/Info : UTF-8 Plain Text
  137. Duration : 21 min 18 s
  138. Bit rate : 39 b/s
  139. Count of elements : 179
  140. Stream size : 6.15 KiB (0%)
  141. Title : Suomi
  142. Language : Finnish
  143. Default : No
  144. Forced : No

  145. Text #7
  146. ID : 10
  147. Format : UTF-8
  148. Codec ID : S_TEXT/UTF8
  149. Codec ID/Info : UTF-8 Plain Text
  150. Duration : 21 min 18 s
  151. Bit rate : 45 b/s
  152. Count of elements : 182
  153. Stream size : 7.15 KiB (0%)
  154. Title : Français
  155. Language : French
  156. Default : No
  157. Forced : No

  158. Text #8
  159. ID : 11
  160. Format : UTF-8
  161. Codec ID : S_TEXT/UTF8
  162. Codec ID/Info : UTF-8 Plain Text
  163. Duration : 21 min 18 s
  164. Bit rate : 43 b/s
  165. Count of elements : 175
  166. Stream size : 6.83 KiB (0%)
  167. Title : Italiano
  168. Language : Italian
  169. Default : No
  170. Forced : No

  171. Text #9
  172. ID : 12
  173. Format : UTF-8
  174. Codec ID : S_TEXT/UTF8
  175. Codec ID/Info : UTF-8 Plain Text
  176. Duration : 21 min 25 s
  177. Bit rate : 46 b/s
  178. Count of elements : 171
  179. Stream size : 7.23 KiB (0%)
  180. Title : Japanese
  181. Language : Japanese
  182. Default : No
  183. Forced : No

  184. Text #10
  185. ID : 13
  186. Format : UTF-8
  187. Codec ID : S_TEXT/UTF8
  188. Codec ID/Info : UTF-8 Plain Text
  189. Duration : 21 min 25 s
  190. Bit rate : 46 b/s
  191. Count of elements : 183
  192. Stream size : 7.34 KiB (0%)
  193. Title : Korean
  194. Language : Korean
  195. Default : No
  196. Forced : No

  197. Text #11
  198. ID : 14
  199. Format : UTF-8
  200. Codec ID : S_TEXT/UTF8
  201. Codec ID/Info : UTF-8 Plain Text
  202. Duration : 21 min 11 s
  203. Bit rate : 40 b/s
  204. Count of elements : 158
  205. Stream size : 6.30 KiB (0%)
  206. Title : Nederlands
  207. Language : Dutch
  208. Default : No
  209. Forced : No

  210. Text #12
  211. ID : 15
  212. Format : UTF-8
  213. Codec ID : S_TEXT/UTF8
  214. Codec ID/Info : UTF-8 Plain Text
  215. Duration : 21 min 11 s
  216. Bit rate : 45 b/s
  217. Count of elements : 181
  218. Stream size : 7.10 KiB (0%)
  219. Title : Norsk
  220. Language : Norwegian
  221. Default : No
  222. Forced : No

  223. Text #13
  224. ID : 16
  225. Format : UTF-8
  226. Codec ID : S_TEXT/UTF8
  227. Codec ID/Info : UTF-8 Plain Text
  228. Duration : 21 min 25 s
  229. Bit rate : 41 b/s
  230. Count of elements : 181
  231. Stream size : 6.57 KiB (0%)
  232. Title : Polski
  233. Language : Polish
  234. Default : No
  235. Forced : No

  236. Text #14
  237. ID : 17
  238. Format : UTF-8
  239. Codec ID : S_TEXT/UTF8
  240. Codec ID/Info : UTF-8 Plain Text
  241. Duration : 21 min 25 s
  242. Bit rate : 45 b/s
  243. Count of elements : 181
  244. Stream size : 7.08 KiB (0%)
  245. Title : Português
  246. Language : Portuguese
  247. Default : No
  248. Forced : No

  249. Text #15
  250. ID : 18
  251. Format : UTF-8
  252. Codec ID : S_TEXT/UTF8
  253. Codec ID/Info : UTF-8 Plain Text
  254. Duration : 21 min 18 s
  255. Bit rate : 42 b/s
  256. Count of elements : 179
  257. Stream size : 6.67 KiB (0%)
  258. Title : Português (Brasil)
  259. Language : Portuguese
  260. Default : No
  261. Forced : No

  262. Text #16
  263. ID : 19
  264. Format : UTF-8
  265. Codec ID : S_TEXT/UTF8
  266. Codec ID/Info : UTF-8 Plain Text
  267. Duration : 21 min 18 s
  268. Bit rate : 48 b/s
  269. Count of elements : 182
  270. Stream size : 7.55 KiB (0%)
  271. Title : Svenska
  272. Language : Swedish
  273. Default : No
  274. Forced : No

  275. Text #17
  276. ID : 20
  277. Format : UTF-8
  278. Codec ID : S_TEXT/UTF8
  279. Codec ID/Info : UTF-8 Plain Text
  280. Duration : 21 min 25 s
  281. Bit rate : 33 b/s
  282. Count of elements : 183
  283. Stream size : 5.31 KiB (0%)
  284. Title : Chinese (Hong Kong)
  285. Language : Chinese
  286. Default : No
  287. Forced : No

  288. Text #18
  289. ID : 21
  290. Format : UTF-8
  291. Codec ID : S_TEXT/UTF8
  292. Codec ID/Info : UTF-8 Plain Text
  293. Duration : 21 min 25 s
  294. Bit rate : 34 b/s
  295. Count of elements : 182
  296. Stream size : 5.48 KiB (0%)
  297. Title : Chinese (Simplified)
  298. Language : Chinese
  299. Default : No
  300. Forced : No
复制代码

星球大战:幻象 / 星球大战:异象/星球大战:幻境4k Star.Wars.Visions.S01.JAPANESE.2160p.WEB-DL.x265.10bit.HDR.DDP5.1美剧下载

星球大战:幻境4k Star.Wars.Visions.S01.JAPANESE.2160p.WEB-DL.x265.10bit.HDR.DDP5.1简繁中字【16.49 GB】
[Hao4k]星球大战:幻境4k Star.Wars.Visions.S01.JAPANESE.2160p.WEB-DL.x265.10bit.HDR.DDP5.1-SWTYBLZ.torrent (22.17 KB)
回复

使用道具 举报

全部回复5

Alestoler002 发表于 2021-9-29 18:49:32

Alestoler002 2

2021-9-29 18:49:32

资源很棒! 但是自带的字幕翻译质量太差了
回复 支持 反对

使用道具 举报

wangm4k 发表于 2021-10-1 13:33:55

wangm4k 3

2021-10-1 13:33:55

给力
回复 支持 反对

使用道具 举报

sun2257842 发表于 2021-10-2 20:01:28

sun2257842 4

2021-10-2 20:01:28

棒棒棒!赶紧下来看看!谢谢楼主!
回复 支持 反对

使用道具 举报

yuchunguangyu 发表于 2021-10-5 11:54:17

yuchunguangyu 5

2021-10-5 11:54:17

棒棒棒!
回复 支持 反对

使用道具 举报

liyun80000 发表于 2021-10-8 11:34:46

liyun80000 6

2021-10-8 11:34:46

多谢分享好资源
回复 支持 反对

使用道具 举报

   发表回复

您需要登录后才可以回帖 登录 | 立即注册

返回列表 本版积分规则

  • 在线客服

  • 返回顶部