微博 微信 手机APP

Hao4K影音

电影频道
电影封面:
片  名: 夜读惊魂4k
电影分类: 恐怖 悬疑 奇幻 
国  家: 美国 
年  代: 2021年
分 辨 率: 4K(3840x2160)
电影格式: MKV|REMUX 
画质标准: HDR 
音质编码: Dolby Digital Plus Audio 
电影声道: 5.1声道 
帧数/FPS: 23.976 帧
电影语言: 英文原版 
资源大小: 12.06 GB
导  演: 大卫·雅洛维斯基
豆瓣评分: 5.7 分
中文字幕: -
剧情简介: 男孩亚历克斯(温斯洛·费格雷饰)是一位恐怖故事迷,他被邪恶的女巫(克里斯滕·里特饰)囚禁在魔法公寓里,要想活下去,他必须每晚讲一个恐怖故事。他与同样被囚禁在此处的亚丝敏(莉娅·朱厄特饰)联手,寻找逃脱的方法。
恐怖睡前故事(港)/夜读惊魂4k Nightbooks.2021.2160p.NF.WEBRip.x265.10bit.HDR.DDP5.1.Atmos电影下载
  1. Video
  2. ID : 1
  3. Format : HEVC
  4. Format/Info : High Efficiency Video Coding
  5. Format profile : Main 10@L5.1@High
  6. HDR format : Dolby Vision, Version 1.0, dvhe.08.06, BL+RPU / SMPTE ST 2086, HDR10 compatible
  7. Codec ID : V_MPEGH/ISO/HEVC
  8. Duration : 1 h 40 min
  9. Bit rate : 16.4 Mb/s
  10. Width : 3 840 pixels
  11. Height : 1 600 pixels
  12. Display aspect ratio : 2.40:1
  13. Frame rate mode : Constant
  14. Frame rate : 23.976 (24000/1001) FPS
  15. Color space : YUV
  16. Chroma subsampling : 4:2:0 (Type 2)
  17. Bit depth : 10 bits
  18. Bits/(Pixel*Frame) : 0.111
  19. Stream size : 11.5 GiB (95%)
  20. Writing library : x265 3.3+31-g431a22e82:[Windows][GCC 11.0.0][64 bit] 10bit
  21. Encoding settings : cpuid=1111039 / frame-threads=4 / numa-pools=28 / wpp / no-pmode / no-pme / no-psnr / no-ssim / log-level=2 / input-csp=1 / input-res=3840x1600 / interlace=0 / total-frames=136429 / level-idc=51 / high-tier=1 / uhd-bd=0 / ref=4 / no-allow-non-conformance / repeat-headers / annexb / aud / hrd / info / hash=0 / no-temporal-layers / open-gop / min-keyint=23 / keyint=250 / gop-lookahead=0 / bframes=4 / b-adapt=2 / b-pyramid / bframe-bias=0 / rc-lookahead=25 / lookahead-slices=4 / scenecut=40 / hist-scenecut=0 / radl=0 / no-splice / no-intra-refresh / ctu=64 / min-cu-size=8 / rect / no-amp / max-tu-size=32 / tu-inter-depth=1 / tu-intra-depth=1 / limit-tu=0 / rdoq-level=2 / dynamic-rd=0.00 / no-ssim-rd / signhide / no-tskip / nr-intra=0 / nr-inter=0 / no-constrained-intra / strong-intra-smoothing / max-merge=3 / limit-refs=3 / limit-modes / me=3 / subme=3 / merange=57 / temporal-mvp / no-frame-dup / no-hme / weightp / no-weightb / no-analyze-src-pics / deblock=-2:-2 / no-sao / no-sao-non-deblock / rd=4 / selective-sao=0 / no-early-skip / rskip / no-fast-intra / no-tskip-fast / no-cu-lossless / no-b-intra / no-splitrd-skip / rdpenalty=0 / psy-rd=2.00 / psy-rdoq=1.00 / no-rd-refine / no-lossless / cbqpoffs=0 / crqpoffs=0 / rc=crf / crf=15.0 / qcomp=0.60 / qpstep=4 / stats-write=0 / stats-read=0 / vbv-maxrate=98000 / vbv-bufsize=98000 / vbv-init=0.9 / crf-max=0.0 / crf-min=0.0 / ipratio=1.40 / pbratio=1.30 / aq-mode=1 / aq-strength=1.00 / cutree / zone-count=0 / no-strict-cbr / qg-size=32 / no-rc-grain / qpmax=69 / qpmin=0 / no-const-vbv / sar=0 / overscan=0 / videoformat=5 / range=0 / colorprim=9 / transfer=16 / colormatrix=9 / chromaloc=1 / chromaloc-top=2 / chromaloc-bottom=2 / display-window=0 / master-display=G(13250,34500)B(7500,3000)R(34000,16000)WP(15635,16450)L(40000000,50) / cll=10000,2980 / min-luma=0 / max-luma=1023 / log2-max-poc-lsb=8 / vui-timing-info / vui-hrd-info / slices=1 / no-opt-qp-pps / no-opt-ref-list-length-pps / no-multi-pass-opt-rps / scenecut-bias=0.05 / hist-threshold=0.01 / no-opt-cu-delta-qp / no-aq-motion / hdr10 / hdr10-opt / no-dhdr10-opt / no-idr-recovery-sei / analysis-reuse-level=0 / analysis-save-reuse-level=0 / analysis-load-reuse-level=0 / scale-factor=0 / refine-intra=0 / refine-inter=0 / refine-mv=1 / refine-ctu-distortion=0 / no-limit-sao / ctu-info=0 / no-lowpass-dct / refine-analysis-type=0 / copy-pic=1 / max-ausize-factor=1.0 / no-dynamic-refine / no-single-sei / no-hevc-aq / no-svt / no-field / qp-adaptation-range=1.00 / no-scenecut-aware-qpconformance-window-offsets / right=0 / bottom=0 / decoder-max-rate=0
  22. Default : Yes
  23. Forced : No
  24. Color range : Limited
  25. Color primaries : BT.2020
  26. Transfer characteristics : PQ
  27. Matrix coefficients : BT.2020 non-constant
  28. Mastering display color primaries : Display P3
  29. Mastering display luminance : min: 0.0050 cd/m2, max: 4000 cd/m2
  30. Maximum Content Light Level : 10000 cd/m2
  31. Maximum Frame-Average Light Level : 2980 cd/m2

  32. Audio
  33. ID : 2
  34. Format : E-AC-3 JOC
  35. Format/Info : Enhanced AC-3 with Joint Object Coding
  36. Commercial name : Dolby Digital Plus with Dolby Atmos
  37. Codec ID : A_EAC3
  38. Duration : 1 h 43 min
  39. Bit rate mode : Constant
  40. Bit rate : 768 kb/s
  41. Channel(s) : 6 channels
  42. Channel layout : L R C LFE Ls Rs
  43. Sampling rate : 48.0 kHz
  44. Frame rate : 31.250 FPS (1536 SPF)
  45. Compression mode : Lossy
  46. Stream size : 567 MiB (5%)
  47. Title : English
  48. Language : English
  49. Service kind : Complete Main
  50. Default : No
  51. Forced : No
  52. Complexity index : 16
  53. Number of dynamic objects : 15
  54. Bed channel count : 1 channel
  55. Bed channel configuration : LFE

  56. Text #1
  57. ID : 3
  58. Format : UTF-8
  59. Codec ID : S_TEXT/UTF8
  60. Codec ID/Info : UTF-8 Plain Text
  61. Duration : 1 h 40 min
  62. Bit rate : 76 b/s
  63. Count of elements : 1129
  64. Stream size : 55.7 KiB (0%)
  65. Title : Arabic
  66. Language : Arabic
  67. Default : No
  68. Forced : No

  69. Text #2
  70. ID : 4
  71. Format : UTF-8
  72. Codec ID : S_TEXT/UTF8
  73. Codec ID/Info : UTF-8 Plain Text
  74. Duration : 1 h 40 min
  75. Bit rate : 43 b/s
  76. Count of elements : 1095
  77. Stream size : 31.7 KiB (0%)
  78. Title : Chinese Simplified
  79. Language : Chinese
  80. Default : No
  81. Forced : No

  82. Text #3
  83. ID : 5
  84. Format : UTF-8
  85. Codec ID : S_TEXT/UTF8
  86. Codec ID/Info : UTF-8 Plain Text
  87. Duration : 1 h 40 min
  88. Bit rate : 40 b/s
  89. Count of elements : 1091
  90. Stream size : 30.0 KiB (0%)
  91. Title : Chinese Traditional
  92. Language : Chinese
  93. Default : No
  94. Forced : No

  95. Text #4
  96. ID : 6
  97. Format : UTF-8
  98. Codec ID : S_TEXT/UTF8
  99. Codec ID/Info : UTF-8 Plain Text
  100. Duration : 1 h 40 min
  101. Bit rate : 36 b/s
  102. Count of elements : 1051
  103. Stream size : 26.8 KiB (0%)
  104. Title : Czech
  105. Language : Czech
  106. Default : No
  107. Forced : No
复制代码

恐怖睡前故事(港)/夜读惊魂4k Nightbooks.2021.2160p.NF.WEBRip.x265.10bit.HDR.DDP5.1.Atmos电影信息

夜读惊魂4k Nightbooks.2021.2160p.NF.WEBRip.x265.10bit.HDR.DDP5.1.Atmos简繁中字【4k HDR 12.06】
[Hao4k]夜读惊魂4k Nightbooks.2021.2160p.NF.WEBRip.x265.10bit.HDR.DDP5.1.Atmos-N0TTZ.torrent (15.72 KB)
回复

使用道具 举报

全部回复4

蔡恩祈 发表于 2021-9-27 23:04:27 Hao4K手机版

蔡恩祈 2

2021-9-27 23:04:27

看过的,还不错,情节比较普通
回复 支持 反对

使用道具 举报

bbgrnnji 发表于 2021-9-28 08:38:35

bbgrnnji 3

2021-9-28 08:38:35

恐怖片还真的不少
回复 支持 反对

使用道具 举报

wangfeng1979 发表于 2021-9-28 09:03:36

wangfeng1979 4

2021-9-28 09:03:36

看封面好像是给青少年看的片子。
回复 支持 反对

使用道具 举报

AFriends 发表于 2021-10-12 20:34:46

AFriends 5

2021-10-12 20:34:46

我觉得挺有趣的。
回复 支持 反对

使用道具 举报

   发表回复

您需要登录后才可以回帖 登录 | 立即注册

返回列表 本版积分规则

  • 发布新帖

  • 客服/帮助

  • 手机APP

  • 返回顶部