微博 微信

Hao4K影音

电影频道
电影封面:
片  名: 魔爪入室4k
电影分类: 惊悚 剧情 
国  家: 美国 
年  代: 2021年
分 辨 率: 4K(3840x2160)
电影格式: MKV|REMUX 
画质标准: SDR 
音质编码: Dolby Digital Plus Audio 
电影声道: 5.1声道 
帧数/FPS: 24.000 帧
电影语言: 中文简体 中文繁体 英文原版 
资源大小: 14.13 GB
导  演: 亚当·萨尔基
豆瓣评分: 4.6 分
中文字幕: -
剧情简介: 一对夫妇搬到小镇居住,有人擅自闯入他们的家。妻子自此疑神疑鬼,似乎身边所有人都是另有图谋。
入室惊魂/魔爪入室4k Intrusion.2021.2160p.NF.WEBRip.x265.10bit.SDR.DDP5.1.Atmos-4k电影信息
  1. Video
  2. ID : 1
  3. Format : HEVC
  4. Format/Info : High Efficiency Video Coding
  5. Format profile : Main 10@L5.1@High
  6. Codec ID : V_MPEGH/ISO/HEVC
  7. Duration : 1 h 33 min
  8. Bit rate : 20.8 Mb/s
  9. Width : 3 840 pixels
  10. Height : 1 608 pixels
  11. Display aspect ratio : 2.40:1
  12. Frame rate mode : Constant
  13. Frame rate : 24.000 FPS
  14. Color space : YUV
  15. Chroma subsampling : 4:2:0 (Type 2)
  16. Bit depth : 10 bits
  17. Bits/(Pixel*Frame) : 0.140
  18. Stream size : 13.6 GiB (96%)
  19. Writing library : x265 3.5+13-4c6880de4:[Windows][GCC 11.2.0][64 bit] 10bit
  20. Encoding settings : cpuid=1111039 / frame-threads=4 / numa-pools=24 / wpp / no-pmode / no-pme / no-psnr / ssim / log-level=2 / input-csp=1 / input-res=3840x1608 / interlace=0 / total-frames=135273 / level-idc=51 / high-tier=1 / uhd-bd=0 / ref=4 / no-allow-non-conformance / repeat-headers / annexb / no-aud / no-eob / no-eos / hrd / info / hash=0 / no-temporal-layers / no-open-gop / min-keyint=5 / keyint=240 / gop-lookahead=0 / bframes=8 / b-adapt=2 / b-pyramid / bframe-bias=0 / rc-lookahead=72 / lookahead-slices=0 / scenecut=40 / no-hist-scenecut / radl=0 / no-splice / no-intra-refresh / ctu=64 / min-cu-size=8 / no-rect / no-amp / max-tu-size=32 / tu-inter-depth=1 / tu-intra-depth=1 / limit-tu=0 / rdoq-level=2 / dynamic-rd=0.00 / no-ssim-rd / signhide / no-tskip / nr-intra=0 / nr-inter=0 / no-constrained-intra / no-strong-intra-smoothing / max-merge=4 / limit-refs=3 / no-limit-modes / me=3 / subme=5 / merange=48 / temporal-mvp / no-frame-dup / hme / Level / merange / L0,L1,L2=16,32,48 / weightp / weightb / no-analyze-src-pics / deblock=-3:-3 / no-sao / no-sao-non-deblock / rd=4 / selective-sao=0 / no-early-skip / rskip / no-fast-intra / no-tskip-fast / no-cu-lossless / b-intra / no-splitrd-skip / rdpenalty=0 / psy-rd=2.00 / psy-rdoq=1.00 / no-rd-refine / no-lossless / cbqpoffs=0 / crqpoffs=0 / rc=crf / crf=14.0 / qcomp=0.65 / qpstep=4 / stats-write=0 / stats-read=0 / vbv-maxrate=160000 / vbv-bufsize=160000 / vbv-init=0.9 / min-vbv-fullness=50.0 / max-vbv-fullness=80.0 / crf-max=0.0 / crf-min=0.0 / ipratio=1.35 / pbratio=1.25 / aq-mode=2 / aq-strength=0.80 / no-cutree / zone-count=1 / zones: / start-frame=126800 / end-frame=135272 / qp=40 / no-strict-cbr / qg-size=32 / no-rc-grain / qpmax=69 / qpmin=0 / no-const-vbv / sar=1 / overscan=0 / videoformat=5 / range=0 / colorprim=1 / transfer=1 / colormatrix=1 / chromaloc=1 / chromaloc-top=2 / chromaloc-bottom=2 / display-window=0 / cll=0,0 / min-luma=0 / max-luma=1023 / log2-max-poc-lsb=8 / vui-timing-info / vui-hrd-info / slices=1 / no-opt-qp-pps / no-opt-ref-list-length-pps / no-multi-pass-opt-rps / scenecut-bias=0.05 / hist-threshold=0.03 / no-opt-cu-delta-qp / no-aq-motion / no-hdr10 / no-hdr10-opt / no-dhdr10-opt / no-idr-recovery-sei / analysis-reuse-level=0 / analysis-save-reuse-level=0 / analysis-load-reuse-level=0 / scale-factor=0 / refine-intra=0 / refine-inter=0 / refine-mv=1 / refine-ctu-distortion=0 / no-limit-sao / ctu-info=0 / no-lowpass-dct / refine-analysis-type=0 / copy-pic=1 / max-ausize-factor=1.0 / no-dynamic-refine / no-single-sei / no-hevc-aq / no-svt / no-field / qp-adaptation-range=1.00 / scenecut-aware-qp=0conformance-window-offsets / right=0 / bottom=0 / decoder-max-rate=0 / no-vbv-live-multi-pass
  21. Default : Yes
  22. Forced : No
  23. Color range : Limited
  24. Color primaries : BT.709
  25. Transfer characteristics : BT.709
  26. Matrix coefficients : BT.709

  27. Audio
  28. ID : 2
  29. Format : E-AC-3 JOC
  30. Format/Info : Enhanced AC-3 with Joint Object Coding
  31. Commercial name : Dolby Digital Plus with Dolby Atmos
  32. Codec ID : A_EAC3
  33. Duration : 1 h 33 min
  34. Bit rate mode : Constant
  35. Bit rate : 768 kb/s
  36. Channel(s) : 6 channels
  37. Channel layout : L R C LFE Ls Rs
  38. Sampling rate : 48.0 kHz
  39. Frame rate : 31.250 FPS (1536 SPF)
  40. Compression mode : Lossy
  41. Delay relative to video : 6 ms
  42. Stream size : 516 MiB (4%)
  43. Title : English
  44. Language : English
  45. Service kind : Complete Main
  46. Default : No
  47. Forced : No
  48. Complexity index : 16
  49. Number of dynamic objects : 15
  50. Bed channel count : 1 channel
  51. Bed channel configuration : LFE

  52. Text #1
  53. ID : 3
  54. Format : UTF-8
  55. Codec ID : S_TEXT/UTF8
  56. Codec ID/Info : UTF-8 Plain Text
  57. Duration : 1 h 23 min
  58. Bit rate : 39 b/s
  59. Count of elements : 769
  60. Stream size : 24.0 KiB (0%)
  61. Language : English
  62. Default : No
  63. Forced : No

  64. Text #2
  65. ID : 4
  66. Format : UTF-8
  67. Codec ID : S_TEXT/UTF8
  68. Codec ID/Info : UTF-8 Plain Text
  69. Duration : 1 h 31 min
  70. Bit rate : 46 b/s
  71. Count of elements : 1095
  72. Stream size : 31.4 KiB (0%)
  73. Title : SDH
  74. Language : English
  75. Default : No
  76. Forced : No

  77. Text #31
  78. ID : 33
  79. Format : UTF-8
  80. Codec ID : S_TEXT/UTF8
  81. Codec ID/Info : UTF-8 Plain Text
  82. Duration : 1 h 32 min
  83. Bit rate : 43 b/s
  84. Count of elements : 730
  85. Stream size : 29.5 KiB (0%)
  86. Language : Vietnamese
  87. Default : No
  88. Forced : No

  89. Text #32
  90. ID : 34
  91. Format : UTF-8
  92. Codec ID : S_TEXT/UTF8
  93. Codec ID/Info : UTF-8 Plain Text
  94. Duration : 1 h 32 min
  95. Bit rate : 33 b/s
  96. Count of elements : 736
  97. Stream size : 22.7 KiB (0%)
  98. Title : Simplified
  99. Language : Chinese
  100. Default : No
  101. Forced : No

  102. Text #33
  103. ID : 35
  104. Format : UTF-8
  105. Codec ID : S_TEXT/UTF8
  106. Codec ID/Info : UTF-8 Plain Text
  107. Duration : 1 h 32 min
  108. Bit rate : 30 b/s
  109. Count of elements : 741
  110. Stream size : 20.8 KiB (0%)
  111. Title : Traditional
  112. Language : Chinese
  113. Default : No
  114. Forced : No
复制代码

入室惊魂/魔爪入室4k Intrusion.2021.2160p.NF.WEBRip.x265.10bit.SDR.DDP5.1.Atmos-4k电影下载

魔爪入室4k Intrusion.2021.2160p.NF.WEBRip.x265.10bit.SDR.DDP5.1.Atmos简繁中字【4k SDR 14.13 】
[Hao4k]魔爪入室4k Intrusion.2021.2160p.NF.WEBRip.x265.10bit.SDR.DDP5.1.Atmos-KiNGS.torrent (18.31 KB, 售价: 2 个K币)
回复

使用道具 举报

全部回复5

qiangnidepu 发表于 2021-9-27 18:33:34

qiangnidepu 2

2021-9-27 18:33:34

这个好像看过呢
回复 支持 反对

使用道具 举报

bbgrnnji 发表于 2021-9-28 08:42:02

bbgrnnji 3

2021-9-28 08:42:02

芙蕾达·平托的电影
回复 支持 反对

使用道具 举报

勇往直前168 发表于 2021-9-28 10:07:16

勇往直前168 4

2021-9-28 10:07:16

好看吗
回复 支持 反对

使用道具 举报

czysky 发表于 2021-9-28 14:16:02

czysky 5

2021-9-28 14:16:02

先下下来看看吧
回复 支持 反对

使用道具 举报

HSSWWH1969 发表于 2021-9-29 09:23:36

HSSWWH1969 6

2021-9-29 09:23:36

新电影上的很快呀!
回复 支持 反对

使用道具 举报

   发表回复

您需要登录后才可以回帖 登录 | 立即注册

返回列表 本版积分规则

  • 在线客服

  • 返回顶部