微博 微信

Hao4K影音

电影频道
电影封面:
片  名: The.One.Youre.With
电影分类: 喜剧 爱情片 
国  家: 美国 
年  代: 2021年
分 辨 率: 4K(3840x2160)
电影格式: MKV|REMUX 
画质标准: SDR 
音质编码: Dolby Digital Audio 
电影声道: 5.1声道 
帧数/FPS: 23.976 帧
电影语言: 英文原版 
资源大小: 13.00 GB
导  演: C. Bailey Werner
豆瓣评分:
中文字幕: -
剧情简介: A girl running from her past has a one-night stand with a guy who\'s stuck in his ways, only to wake up the next morning to discover they are forced to live together due to a nation-wide state of emergency.
The.One.Youre.With.2021.2160p.WEB-DL.x265.10bit.SDR.DD5.1-4k电影信息
  1. Video
  2. ID : 1
  3. Format : HEVC
  4. Format/Info : High Efficiency Video Coding
  5. Format profile : Main 10@L5@High
  6. Codec ID : V_MPEGH/ISO/HEVC
  7. Duration : 1 h 28 min
  8. Bit rate : 20.7 Mb/s
  9. Width : 3 550 pixels
  10. Height : 2 160 pixels
  11. Display aspect ratio : 16:10
  12. Frame rate mode : Constant
  13. Frame rate : 23.976 FPS
  14. Color space : YUV
  15. Chroma subsampling : 4:2:0
  16. Bit depth : 10 bits
  17. Bits/(Pixel*Frame) : 0.113
  18. Stream size : 12.8 GiB (98%)
  19. Language : English
  20. Default : Yes
  21. Forced : No
  22. Color range : Limited
  23. Color primaries : BT.709
  24. Transfer characteristics : BT.709
  25. Matrix coefficients : BT.709

  26. Audio
  27. ID : 2
  28. Format : AC-3
  29. Format/Info : Audio Coding 3
  30. Commercial name : Dolby Digital
  31. Codec ID : A_AC3
  32. Duration : 1 h 28 min
  33. Bit rate mode : Constant
  34. Bit rate : 384 kb/s
  35. Channel(s) : 6 channels
  36. Channel layout : L R C LFE Ls Rs
  37. Sampling rate : 48.0 kHz
  38. Frame rate : 31.250 FPS (1536 SPF)
  39. Compression mode : Lossy
  40. Stream size : 242 MiB (2%)
  41. Title : English
  42. Language : English
  43. Service kind : Complete Main
  44. Default : No
  45. Forced : No

  46. Text
  47. ID : 3
  48. Format : UTF-8
  49. Codec ID : S_TEXT/UTF8
  50. Codec ID/Info : UTF-8 Plain Text
  51. Duration : 1 h 27 min
  52. Bit rate : 78 b/s
  53. Count of elements : 1885
  54. Stream size : 50.7 KiB (0%)
  55. Language : English
  56. Default : Yes
复制代码

The.One.Youre.With.2021.2160p.WEB-DL.x265.10bit.SDR.DD5.1-4k电影下载

The.One.Youre.With.2021.2160p.WEB-DL.x265.10bit.SDR.DD5.1【4k SDR 13.00  GB】
[Hao4k]The.One.Youre.With.2021.2160p.WEB-DL.x265.10bit.SDR.DD5.1-NOGRP.torrent (16.91 KB)
回复

使用道具 举报

全部回复1

bbgrnnji 发表于 2021-9-29 08:57:37

bbgrnnji 2

2021-9-29 08:57:37

这个海报说明了一切
回复 支持 1 反对 0

使用道具 举报

   发表回复

您需要登录后才可以回帖 登录 | 立即注册

返回列表 本版积分规则

  • 在线客服

  • 返回顶部