微博 微信 手机APP

Hao4K影音

电影频道
电影封面:
片  名: 巨鳄风暴4k
电影分类: 惊悚 剧情 灾难 
国  家: 美国 加拿大 其他 
年  代: 2019年
分 辨 率: 4K(3840x2160)
电影格式: MKV|REMUX 
画质标准: HDR Dolby Vision 
音质编码: Dolby Digital Plus Audio 
电影声道: 7.1声道 
帧数/FPS: 23.976 帧
电影语言: 英文原版 
资源大小: 15.30 GB
导  演: 亚历山大·阿嘉
豆瓣评分: 5.7 分
中文字幕: -
剧情简介:  故事发生在位于美国佛罗里达州的一座小镇内,一场猛烈的飓风在居民们措手不及的情况下袭击了该小镇。海丽(卡雅·斯考达里奥 Kaya Scodelario 饰)是一名游泳运动员,在训练中,她接到了姐姐打来的电话,姐姐告诉她,她们的父亲戴夫(巴里·佩珀 Barry Pepper 饰)失踪了。
  政府命令小镇上所有的居民们都从家中撤离,但是海丽无法弃父亲于不顾,擅自折返来到了父亲的家中,果不其然,在地下室里,海丽找到了身受重伤的父亲,如果不是她即使出现,那么戴夫将必死无疑。现在,父女两人需要面对的,是逐渐被洪水填满的地下室,但很快,海丽就意识到,他们的对手并非这么简单,有一些邪恶而又凶暴的黑影隐藏在水面之下。
噬逃险鳄(港) / 鳄魔(台) / 爬行/巨鳄风暴4k  Crawl.2019.2160p.WEB-DL.DDP7.1.DV.MP4.x265-4k电影信息
  1. Video
  2. ID : 1
  3. Format : HEVC
  4. Format/Info : High Efficiency Video Coding
  5. Format profile : Main 10@L5@High
  6. HDR format : Dolby Vision, Version 1.0, dvhe.05.06, BL+RPU
  7. Codec ID : dvhe
  8. Codec ID/Info : High Efficiency Video Coding with Dolby Vision
  9. Duration : 1 h 27 min
  10. Bit rate : 24.4 Mb/s
  11. Width : 3 832 pixels
  12. Original width : 3 828 pixels
  13. Height : 1 600 pixels
  14. Original height : 1 596 pixels
  15. Display aspect ratio : 2.40:1
  16. Original display aspect ratio : 2.40:1
  17. Frame rate mode : Constant
  18. Frame rate : 23.976 (24000/1001) FPS
  19. Color space : YUV
  20. Chroma subsampling : 4:2:0
  21. Bit depth : 10 bits
  22. Bits/(Pixel*Frame) : 0.166
  23. Stream size : 14.9 GiB (97%)
  24. Default : Yes
  25. Alternate group : 1
  26. Encoded date : UTC 2021-09-29 06:22:33
  27. Tagged date : UTC 2021-09-29 06:30:53
  28. Codec configuration box : hvcC+dvcC

  29. Audio
  30. ID : 2
  31. Format : E-AC-3
  32. Format/Info : Enhanced AC-3
  33. Commercial name : Dolby Digital Plus
  34. Codec ID : ec-3
  35. Duration : 1 h 27 min
  36. Bit rate mode : Constant
  37. Bit rate : 640 kb/s
  38. Maximum bit rate : 676 kb/s
  39. Channel(s) : 8 channels
  40. Channel layout : L R C LFE Ls Rs Lb Rb
  41. Sampling rate : 48.0 kHz
  42. Frame rate : 31.250 FPS (1536 SPF)
  43. Compression mode : Lossy
  44. Stream size : 401 MiB (3%)
  45. Title : English
  46. Language : English
  47. Service kind : Complete Main
  48. Encoded date : UTC 2021-09-29 06:19:29
  49. Tagged date : UTC 2021-09-29 06:30:53

  50. Text #1
  51. ID : 3
  52. Format : Timed Text
  53. Codec ID : tx3g
  54. Duration : 1 h 22 min
  55. Bit rate mode : Variable
  56. Bit rate : 27 b/s
  57. Stream size : 16.4 KiB (0%)
  58. Title : English
  59. Language : English
  60. Forced : No
  61. Encoded date : UTC 2021-09-29 06:23:40
  62. Tagged date : UTC 2021-09-29 06:30:53

  63. Text #2
  64. ID : 4
  65. Format : Timed Text
  66. Codec ID : tx3g
  67. Duration : 1 h 25 min
  68. Bit rate mode : Variable
  69. Bit rate : 35 b/s
  70. Stream size : 21.7 KiB (0%)
  71. Title : SDH
  72. Language : English
  73. Forced : No
  74. Encoded date : UTC 2021-09-29 06:23:41
  75. Tagged date : UTC 2021-09-29 06:30:53

  76. Text #3
  77. ID : 5
  78. Format : Timed Text
  79. Codec ID : tx3g
  80. Duration : 1 h 27 min
  81. Bit rate mode : Variable
  82. Bit rate : 25 b/s
  83. Stream size : 16.1 KiB (0%)
  84. Title : Latin American
  85. Language : Spanish
  86. Forced : No
  87. Encoded date : UTC 2021-09-29 06:23:41
  88. Tagged date : UTC 2021-09-29 06:30:53

  89. Menu
  90. 00:00:00.000 : Chapter 1
  91. 00:07:53.000 : Chapter 2
  92. 00:15:18.000 : Chapter 3
  93. 00:22:31.000 : Chapter 4
  94. 00:34:41.000 : Chapter 5
  95. 00:42:17.000 : Chapter 6
  96. 00:50:11.000 : Chapter 7
  97. 00:57:09.000 : Chapter 8
  98. 01:03:42.000 : Chapter 9
  99. 01:08:38.000 : Chapter 10
  100. 01:15:16.000 : Chapter 11
  101. 01:23:11.000 : Chapter 12
复制代码

噬逃险鳄(港) / 鳄魔(台) / 爬行/巨鳄风暴4k  Crawl.2019.2160p.WEB-DL.DDP7.1.DV.MP4.x265-4k电影下载

巨鳄风暴4k  Crawl.2019.2160p.WEB-DL.DDP.7.1.DV.MP4.x265杜比视界【4k 15.30 GB】
[Hao4k]巨鳄风暴4k Crawl.2019.2160p.WEB-DL.DDP7.1.DV.MP4.x265-TEPES.torrent (19.75 KB, 售价: 2 个K币)
回复

使用道具 举报

全部回复3

bbgrnnji 发表于 2021-10-1 09:24:54

bbgrnnji 2

2021-10-1 09:24:54

这个感觉要洗
回复 支持 反对

使用道具 举报

alanli 发表于 2021-10-1 19:25:05 Hao4K手机版

alanli 3

2021-10-1 19:25:05

有字幕吗?
回复 支持 反对

使用道具 举报

hbhglxs 发表于 2021-10-2 14:38:02

hbhglxs 4

2021-10-2 14:38:02

Crawl.校正后的字幕

Crawl.2019.2160p.WEB-DL.x265.10bit.HDR.DTS-HD.MA.7.1-SWTYBLZ.srt

36.19 KB

回复 支持 2 反对 0

使用道具 举报

   发表回复

您需要登录后才可以回帖 登录 | 立即注册

返回列表 本版积分规则

  • 发布新帖

  • 客服/帮助

  • 手机APP

  • 返回顶部