微博 微信 手机APP

Hao4K影音

电影频道
电影封面:
片  名: 极道公主4k
电影分类: 惊悚 
国  家: 其他 
年  代: 2021年
分 辨 率: 4K(3840x2160)
电影格式: MKV|REMUX 
画质标准: HDR SDR 
音质编码: Dolby Digital Plus Audio 
电影声道: 5.1声道 
帧数/FPS: 23.976 帧
电影语言: 英文原版 
资源大小: 11.84 GB
导  演: 威森特·阿莫里姆
豆瓣评分: 4.6 分
中文字幕: -
剧情简介:  围绕巴西圣保罗最大的日本侨民社区展开,讲述了孤儿Akemi(Masumi饰)发现自己是黑道犯罪集团一半的继承人,她在与一个失忆的陌生人(莱斯·梅耶斯饰)结成联盟后,Akemi相信是一把古老的剑将他们两人的命运捆绑在一起,她向想要她死的另一半犯罪集团发动了战争。
极道公主4k Yakuza.Princess.2021.2160p.WEB-DL.x265.10bit.HDR.DDP5.1.Atmos-4k电影信息
  1. Video
  2. ID : 1
  3. Format : HEVC
  4. Format/Info : High Efficiency Video Coding
  5. Format profile : Main 10@L5@High
  6. Codec ID : V_MPEGH/ISO/HEVC
  7. Duration : 1 h 51 min
  8. Bit rate : 12.0 Mb/s
  9. Width : 3 840 pixels
  10. Height : 1 608 pixels
  11. Display aspect ratio : 2.40:1
  12. Frame rate mode : Constant
  13. Frame rate : 23.976 FPS
  14. Color space : YUV
  15. Chroma subsampling : 4:2:0
  16. Bit depth : 10 bits
  17. Bits/(Pixel*Frame) : 0.081
  18. Stream size : 9.32 GiB (94%)
  19. Language : English
  20. Default : Yes
  21. Forced : No
  22. Color range : Limited
  23. Color primaries : BT.709
  24. Transfer characteristics : BT.709
  25. Matrix coefficients : BT.709

  26. Audio
  27. ID : 2
  28. Format : E-AC-3 JOC
  29. Format/Info : Enhanced AC-3 with Joint Object Coding
  30. Commercial name : Dolby Digital Plus with Dolby Atmos
  31. Codec ID : A_EAC3
  32. Duration : 1 h 51 min
  33. Bit rate mode : Constant
  34. Bit rate : 768 kb/s
  35. Channel(s) : 6 channels
  36. Channel layout : L R C LFE Ls Rs
  37. Sampling rate : 48.0 kHz
  38. Frame rate : 31.250 FPS (1536 SPF)
  39. Compression mode : Lossy
  40. Stream size : 611 MiB (6%)
  41. Title : English
  42. Language : English
  43. Service kind : Complete Main
  44. Default : No
  45. Forced : No
  46. Complexity index : 16
  47. Number of dynamic objects : 15
  48. Bed channel count : 1 channel
  49. Bed channel configuration : LFE

  50. Text
  51. ID : 3
  52. Format : UTF-8
  53. Codec ID : S_TEXT/UTF8
  54. Codec ID/Info : UTF-8 Plain Text
  55. Duration : 1 h 44 min
  56. Bit rate : 19 b/s
  57. Count of elements : 677
  58. Stream size : 14.6 KiB (0%)
  59. Language : English
  60. Default : Yes
  61. Forced : No
复制代码


极道公主4k Yakuza.Princess.2021.2160p.WEB-DL.x265.10bit.HDR.DDP5.1.Atmos-4k电影下载

极道公主4k Yakuza.Princess.2021.2160p.WEB-DL.x265.10bit.HDR.DDP5.1.Atmos【4k HDR 11.84 GB】
[Hao4k]极道公主4k Yakuza.Princess.2021.2160p.WEB-DL.x265.10bit.HDR.DDP5.1.Atmos-NOGRP.torrent (15.46 KB, 售价: 2 个K币)
回复

使用道具 举报

   发表回复

您需要登录后才可以回帖 登录 | 立即注册

返回列表 本版积分规则

  • 发布新帖

  • 客服/帮助

  • 手机APP

  • 返回顶部