微博 微信

Hao4K影音

电影频道
电影封面:
片  名: 致胜女王4k
电影分类: 喜剧 
国  家: 美国 
年  代: 2021年
分 辨 率: 4K(3840x2160)
电影格式: MKV|REMUX 
画质标准: HDR 
音质编码: Dolby Digital Plus Audio 
电影声道: 5.1声道 
帧数/FPS: 23.976 帧
电影语言: 英文原版 
资源大小: 11.58 GB
导  演: Aron Gaudet / Gita Pullapilly
豆瓣评分: 6.2 分
中文字幕: -
剧情简介: 本片根据史上最大的优惠券造假骗局改编,讲述一名住在郊区的家庭主妇(贝尔饰)受够了被丈夫和社会忽视的生活。于是她试图通过成立一个非法优惠券俱乐部来重新掌控自己的生活,并最终和她的剪券同伴一起从食品公司骗取了数百万美元。雷克萨将饰演一位名叫Tempe Tina的电脑黑客。
爽翻姐妹(台)/致胜女王4k Queenpins.2021.2160p.WEB-DL.x265.10bit.HDR10Plus.DDP5.1-4k电影信息
  1. Video
  2. ID : 1
  3. Format : HEVC
  4. Format/Info : High Efficiency Video Coding
  5. Format profile : Main 10@L5@High
  6. HDR format : SMPTE ST 2094 App 4, Version 1, HDR10+ Profile B compatible
  7. Codec ID : V_MPEGH/ISO/HEVC
  8. Duration : 1 h 50 min
  9. Bit rate : 14.4 Mb/s
  10. Width : 3 840 pixels
  11. Height : 2 160 pixels
  12. Display aspect ratio : 16:9
  13. Frame rate mode : Constant
  14. Frame rate : 23.976 (24000/1001) FPS
  15. Color space : YUV
  16. Chroma subsampling : 4:2:0 (Type 2)
  17. Bit depth : 10 bits
  18. Bits/(Pixel*Frame) : 0.072
  19. Stream size : 11.1 GiB (96%)
  20. Language : English
  21. Default : Yes
  22. Forced : No
  23. Color range : Full
  24. Color primaries : BT.2020
  25. Transfer characteristics : PQ
  26. Matrix coefficients : BT.2020 non-constant
  27. Mastering display color primaries : Display P3
  28. Mastering display luminance : min: 0.0001 cd/m2, max: 1000 cd/m2

  29. Audio
  30. ID : 2
  31. Format : E-AC-3
  32. Format/Info : Enhanced AC-3
  33. Commercial name : Dolby Digital Plus
  34. Codec ID : A_EAC3
  35. Duration : 1 h 50 min
  36. Bit rate mode : Constant
  37. Bit rate : 640 kb/s
  38. Channel(s) : 6 channels
  39. Channel layout : L R C LFE Ls Rs
  40. Sampling rate : 48.0 kHz
  41. Frame rate : 31.250 FPS (1536 SPF)
  42. Compression mode : Lossy
  43. Stream size : 505 MiB (4%)
  44. Language : English
  45. Service kind : Complete Main
  46. Default : Yes
  47. Forced : No

  48. Text
  49. ID : 3
  50. Format : UTF-8
  51. Codec ID : S_TEXT/UTF8
  52. Codec ID/Info : UTF-8 Plain Text
  53. Duration : 1 h 45 min
  54. Bit rate : 101 b/s
  55. Count of elements : 2033
  56. Stream size : 78.3 KiB (0%)
  57. Language : English
  58. Default : Yes
  59. Forced : No
复制代码

爽翻姐妹(台)/致胜女王4k Queenpins.2021.2160p.WEB-DL.x265.10bit.HDR10Plus.DDP5.1-4k电影下载
致胜女王4k Queenpins.2021.2160p.WEB-DL.x265.10bit.HDR10Plus.DDP5.1【4k .HDR 11.58 GB 】
[Hao4k]致胜女王4k Queenpins.2021.2160p.WEB-DL.x265.10bit.HDR10Plus.DDP5.1-NOGRP.torrent (15.12 KB, 售价: 2 个K币)
回复

使用道具 举报

全部回复4

hhhz 发表于 2021-9-30 18:52:52

hhhz 2

2021-9-30 18:52:52

骗子影片,下来看看。
回复 支持 反对

使用道具 举报

QQ_1C652F 发表于 2021-10-1 22:30:02

QQ_1C652F 3

2021-10-1 22:30:02

谢谢楼主无私分享
回复 支持 反对

使用道具 举报

TC001 发表于 2021-10-2 09:17:24

TC001 4

2021-10-2 09:17:24

沒中文字幕XD 可以去你裡下載呢?
回复 支持 反对

使用道具 举报

智能高清1 发表于 2021-10-9 12:42:43

智能高清1 5

2021-10-9 12:42:43

爽翻姐妹(台)/致胜女王4k Queenpins.2021.2160p.WEB-DL.x265.10bit.HDR10Plus.DDP5.1-4k字幕。

Queenpins 2021.zh.srt

146.43 KB, 阅读权限: 55

回复 支持 反对

使用道具 举报

   发表回复

您需要登录后才可以回帖 登录 | 立即注册

返回列表 本版积分规则

  • 在线客服

  • 返回顶部