微博 微信

Hao4K影音

电影频道
电影封面:
片  名: 算牌人4k
电影分类: 动作 惊悚 剧情 
国  家: 美国 中国大陆 英国 
年  代: 2021年
分 辨 率: 4K(3840x2160)
电影格式: MKV|REMUX 
画质标准: HDR SDR 
音质编码: Dolby Digital Plus Audio 
电影声道: 5.1声道 
帧数/FPS: 23.976 帧
电影语言: 英文原版 
资源大小: 11.71 GB
导  演: 保罗·施拉德
豆瓣评分: 6.0 分
中文字幕: /thread-62551-1-1.html
剧情简介: 泰尔素日只想玩牌,而奇克是一个脆弱易怒的年轻人,奇克正在寻求帮助,来执行他对军事上校(达福饰)的复仇计划。泰尔也在奇克身上看到了复仇的希望。得益于神秘的赌博金主拉·琳达(哈迪斯饰)的支持,泰尔带领奇克在赌场间辗转,直到三人的目光投向赢得在拉斯维加斯举行的世界扑克大赛。但事实证明,令奇克保持专注是行不通的,同时泰尔也被拖回了他过去的黑暗阴影中。
扑克神算师(港) / 算牌手(台) / 牌桌/算牌人4k The.Card.Counter.2021.2160p.WEB-DL.x265.10bit.HDR.DDP5.1-4k电影信息
  1. Video
  2. ID : 1
  3. Format : HEVC
  4. Format/Info : High Efficiency Video Coding
  5. Format profile : Main 10@L5@High
  6. HDR format : SMPTE ST 2086, HDR10 compatible
  7. Codec ID : V_MPEGH/ISO/HEVC
  8. Duration : 1 h 51 min
  9. Bit rate : 14.3 Mb/s
  10. Width : 3 596 pixels
  11. Height : 2 160 pixels
  12. Display aspect ratio : 5:3
  13. Frame rate mode : Constant
  14. Frame rate : 23.976 FPS
  15. Color space : YUV
  16. Chroma subsampling : 4:2:0 (Type 2)
  17. Bit depth : 10 bits
  18. Bits/(Pixel*Frame) : 0.077
  19. Stream size : 11.2 GiB (96%)
  20. Default : Yes
  21. Forced : No
  22. Color range : Limited
  23. Color primaries : BT.2020
  24. Transfer characteristics : PQ
  25. Matrix coefficients : BT.2020 non-constant
  26. Mastering display color primaries : Display P3
  27. Mastering display luminance : min: 0.0050 cd/m2, max: 1000 cd/m2
  28. Maximum Content Light Level : 926 cd/m2
  29. Maximum Frame-Average Light Level : 140 cd/m2

  30. Audio
  31. ID : 2
  32. Format : E-AC-3
  33. Format/Info : Enhanced AC-3
  34. Commercial name : Dolby Digital Plus
  35. Codec ID : A_EAC3
  36. Duration : 1 h 51 min
  37. Bit rate mode : Constant
  38. Bit rate : 640 kb/s
  39. Channel(s) : 6 channels
  40. Channel layout : L R C LFE Ls Rs
  41. Sampling rate : 48.0 kHz
  42. Frame rate : 31.250 FPS (1536 SPF)
  43. Compression mode : Lossy
  44. Stream size : 512 MiB (4%)
  45. Language : English
  46. Service kind : Complete Main
  47. Default : Yes
  48. Forced : No

  49. Text #1
  50. ID : 3
  51. Format : UTF-8
  52. Codec ID : S_TEXT/UTF8
  53. Codec ID/Info : UTF-8 Plain Text
  54. Duration : 1 h 42 min
  55. Bit rate : 48 b/s
  56. Count of elements : 1351
  57. Stream size : 36.2 KiB (0%)
  58. Language : English
  59. Default : Yes
  60. Forced : No

  61. Text #2
  62. ID : 4
  63. Format : UTF-8
  64. Codec ID : S_TEXT/UTF8
  65. Codec ID/Info : UTF-8 Plain Text
  66. Duration : 1 h 50 min
  67. Bit rate : 54 b/s
  68. Count of elements : 1655
  69. Stream size : 43.8 KiB (0%)
  70. Title : SDH
  71. Language : English
  72. Default : No
  73. Forced : No
复制代码

扑克神算师(港) / 算牌手(台) / 牌桌/算牌人4k The.Card.Counter.2021.2160p.WEB-DL.x265.10bit.HDR.DDP5.1-4k电影下载

算牌人4k The.Card.Counter.2021.2160p.WEB-DL.x265.10bit.HDR.DDP5.1【 4k HDR 11.71 GB】
[Hao4k]算牌人4k The.Card.Counter.2021.2160p.WEB-DL.x265.10bit.HDR.DDP5.1-NOGRP.torrent (15.29 KB, 售价: 2 个K币)
回复

使用道具 举报

全部回复8

hhhz 发表于 2021-9-30 18:53:31

hhhz 2

2021-9-30 18:53:31

数学高人?
回复 支持 反对

使用道具 举报

bbgrnnji 发表于 2021-10-1 09:21:46

bbgrnnji 3

2021-10-1 09:21:46

谢谢楼主发资源
回复 支持 反对

使用道具 举报

老鼠响叮当燚燚 发表于 2021-10-1 09:56:37

老鼠响叮当燚燚 4

2021-10-1 09:56:37

谢谢楼主发片分享
回复 支持 反对

使用道具 举报

wjxx878 发表于 2021-10-1 10:46:28

wjxx878 5

2021-10-1 10:46:28

请问从哪里可以下载到字幕。
回复 支持 反对

使用道具 举报

QQ_1C652F 发表于 2021-10-1 22:29:19

QQ_1C652F 6

2021-10-1 22:29:19

谢谢楼主无私分享
回复 支持 反对

使用道具 举报

125458722 发表于 2021-10-2 17:05:27 Hao4K手机版

125458722 7

2021-10-2 17:05:27

谢谢楼主分享,有时间下载出来看看
回复 支持 反对

使用道具 举报

老鼠响叮当燚燚 发表于 2021-10-4 10:22:03

老鼠响叮当燚燚 8

2021-10-4 10:22:03

谢谢楼主发片分享
回复 支持 反对

使用道具 举报

Biosnake88 发表于 昨天 23:20

Biosnake88 9

昨天 23:20

天启是不是他演的
回复 支持 反对

使用道具 举报

   发表回复

您需要登录后才可以回帖 登录 | 立即注册

返回列表 本版积分规则

  • 在线客服

  • 返回顶部