微博 微信

Hao4K影音

电影频道
电影封面:
片  名: 美国之夜4k
电影分类: 动作 惊悚 
国  家: 意大利 
年  代: 2021年
分 辨 率: 4K(3840x2160)
电影格式: MKV|REMUX 
画质标准: SDR 
音质编码: Dolby Digital Audio 
电影声道: 5.1声道 
帧数/FPS: 23.976 帧
电影语言: 英文原版 
资源大小: 10.71 GB
导  演: 阿莱西奥·德拉·瓦勒
豆瓣评分:
中文字幕: -
剧情简介: 乔纳森·莱斯·梅耶斯、埃米尔·赫斯基、帕斯·贝加([对她说])、杰里米·皮文([明日边缘])将携手出演黑色惊悚片[美国之夜](American Night,暂译)。影片将是Alessio Jim Della Valle的导演处女作,Valle亲自撰写剧本。影片讲述迈克尔·鲁比诺(赫斯基饰)刚刚成为纽约黑手党的头目,但他最大的梦想是将自己的一生奉献给绘画,并成为伟大的艺术家。艺术品经销商约翰·卡普兰(梅耶斯饰)的生活似乎一片混乱,但他仍拥有最能发现世界各地假货的双眼。当安迪·沃霍尔的《粉红玛丽莲》被偷走时,陌生的两人有了交集,而这一切也将颠覆他们的生活。
美国之夜4k American.Night.2021.2160p.WEB-DL.x265.10bit.SDR.DD5.1-4k电影信息
  1. Video
  2. ID : 1
  3. Format : HEVC
  4. Format/Info : High Efficiency Video Coding
  5. Format profile : Main 10@L5@High
  6. Codec ID : V_MPEGH/ISO/HEVC
  7. Duration : 2 h 3 min
  8. Bit rate : 12.0 Mb/s
  9. Width : 3 828 pixels
  10. Height : 1 596 pixels
  11. Display aspect ratio : 2.40:1
  12. Frame rate mode : Constant
  13. Frame rate : 23.976 FPS
  14. Color space : YUV
  15. Chroma subsampling : 4:2:0
  16. Bit depth : 10 bits
  17. Bits/(Pixel*Frame) : 0.082
  18. Stream size : 10.4 GiB (97%)
  19. Default : Yes
  20. Forced : No
  21. Color range : Limited
  22. Color primaries : BT.709
  23. Transfer characteristics : BT.709
  24. Matrix coefficients : BT.709

  25. Audio
  26. ID : 2
  27. Format : AC-3
  28. Format/Info : Audio Coding 3
  29. Commercial name : Dolby Digital
  30. Codec ID : A_AC3
  31. Duration : 2 h 3 min
  32. Bit rate mode : Constant
  33. Bit rate : 384 kb/s
  34. Channel(s) : 6 channels
  35. Channel layout : L R C LFE Ls Rs
  36. Sampling rate : 48.0 kHz
  37. Frame rate : 31.250 FPS (1536 SPF)
  38. Compression mode : Lossy
  39. Stream size : 340 MiB (3%)
  40. Title : English
  41. Language : English
  42. Service kind : Complete Main
  43. Default : No
  44. Forced : No

  45. Text
  46. ID : 3
  47. Format : UTF-8
  48. Codec ID : S_TEXT/UTF8
  49. Codec ID/Info : UTF-8 Plain Text
  50. Duration : 1 h 59 min
  51. Bit rate : 38 b/s
  52. Count of elements : 1192
  53. Stream size : 33.6 KiB (0%)
  54. Language : English
  55. Default : Yes
  56. Forced : No
复制代码

美国之夜4k American.Night.2021.2160p.WEB-DL.x265.10bit.SDR.DD5.1-4k电影下载

美国之夜4k American.Night.2021.2160p.WEB-DL.x265.10bit.SDR.DD5.1【4k SDR 10.71 GB】
[Hao4k]美国之夜 4k American.Night.2021.2160p.WEB-DL.x265.10bit.SDR.DD5.1-NOGRP.torrent (14.03 KB, 售价: 3 个K币)
回复

使用道具 举报

全部回复9

les5332295 发表于 2021-10-1 15:10:39

les5332295 2

2021-10-1 15:10:39

这个电影这么快就有,好样的Hao4K
回复 支持 1 反对 0

使用道具 举报

zhu482653 发表于 2021-10-1 16:00:48

zhu482653 3

2021-10-1 16:00:48

下载过来看看,
回复 支持 反对

使用道具 举报

liyun80000 发表于 2021-10-1 20:08:42

liyun80000 4

2021-10-1 20:08:42

谢谢楼主分享
回复 支持 反对

使用道具 举报

QQ_1C652F 发表于 2021-10-1 22:28:29

QQ_1C652F 5

2021-10-1 22:28:29

谢谢楼主无私分享
回复 支持 反对

使用道具 举报

map18 发表于 2021-10-2 17:46:58

map18 6

2021-10-2 17:46:58

求中文字幕
回复 支持 反对

使用道具 举报

qzy4057 发表于 2021-10-3 17:36:26

qzy4057 7

2021-10-3 17:36:26

电影很好,就是找不到字幕?
回复 支持 反对

使用道具 举报

阿尔卑斯的雪 发表于 2021-10-5 21:09:24

阿尔卑斯的雪 8

2021-10-5 21:09:24

学习分享 这么快就有了 简直神速啊
回复 支持 反对

使用道具 举报

Stevenlin_sh 发表于 2021-10-7 17:16:28

Stevenlin_sh 9

2021-10-7 17:16:28

同求中文字幕
回复 支持 反对

使用道具 举报

笑傲江湖K 发表于 6 天前

笑傲江湖K 10

6 天前


谢谢楼主分享啊
回复 支持 反对

使用道具 举报

   发表回复

您需要登录后才可以回帖 登录 | 立即注册

返回列表 本版积分规则

  • 在线客服

  • 返回顶部