微博 微信 手机APP

Hao4K影音

电影频道
电影封面:
片  名: 纽瓦克众圣4k
电影分类: 犯罪 剧情 
国  家: 美国 
年  代: 2021年
分 辨 率: 4K(3840x2160)
电影格式: MKV|REMUX 
画质标准: Dolby Vision 
音质编码: Dolby Digital Plus Audio 
电影声道: 5.1声道 
帧数/FPS: 23.976 帧
电影语言: 英文原版 
资源大小: 15.75 GB
导  演: 阿兰·泰勒
豆瓣评分: 6.4 分
中文字幕: /thread-62282-1-1.html
剧情简介: 根据HBO大热剧集《黑道家族》改编的电影将问世,新线正在打造该剧前传电影[纽瓦克圣人](The Many Saints of Newark,暂译)。原剧编剧兼监制大卫·切斯及编剧劳伦斯·康纳尔操刀新片剧本,大卫·切斯任制片。影片故事背景设定在上世纪60年代纽瓦克暴力活动猖獗地带,黑帮争斗频发。该剧于1999年至2007年播出,共六季,获21项艾美奖、5项金球奖。原剧主演詹姆斯·甘多菲尼、弗兰克·文森特相继于2013年、去年去世。据悉原剧中多个粉丝熟悉的形象将现身大银幕。
纽瓦克诸圣 / 纽瓦克的诸多圣人 / 黑道家族前传 / 纽瓦克众圣徒:黑道家族外传 / The Many Saints of Newark: A Sopranos Story/纽瓦克众圣4k The.Many.Saints.of.Newark.2021.2160p.HMAX.WEB-DL.DDP5.1.Atmos.DV.MP4.x265-4k电影信息
  1. Video
  2. ID : 1
  3. Format : HEVC
  4. Format/Info : High Efficiency Video Coding
  5. Format profile : Main 10@L5@Main
  6. HDR format : Dolby Vision, Version 1.0, dvhe.05.06, BL+RPU
  7. Codec ID : dvhe
  8. Codec ID/Info : High Efficiency Video Coding with Dolby Vision
  9. Duration : 2 h 0 min
  10. Bit rate : 18.0 Mb/s
  11. Width : 3 840 pixels
  12. Height : 2 160 pixels
  13. Display aspect ratio : 16:9
  14. Frame rate mode : Constant
  15. Frame rate : 23.976 (24000/1001) FPS
  16. Color space : YUV
  17. Chroma subsampling : 4:2:0
  18. Bit depth : 10 bits
  19. Bits/(Pixel*Frame) : 0.090
  20. Stream size : 15.1 GiB (96%)
  21. Writing library : x265 3.4hy:[Linux][GCC 7.5.0][64 bit] 10bit
  22. Encoding settings : cpuid=1111039 / frame-threads=6 / no-wpp / no-pmode / no-pme / no-psnr / no-ssim / log-level=2 / input-csp=1 / input-res=3840x2160 / interlace=0 / total-frames=0 / level-idc=0 / high-tier=1 / uhd-bd=0 / ref=4 / no-allow-non-conformance / repeat-headers / annexb / aud / hrd / info / hash=0 / no-temporal-layers / no-open-gop / min-keyint=96 / keyint=96 / gop-lookahead=0 / bframes=4 / b-adapt=2 / b-pyramid / bframe-bias=0 / rc-lookahead=25 / lookahead-slices=4 / scenecut=40 / hist-scenecut=0 / radl=0 / no-splice / no-intra-refresh / ctu=64 / min-cu-size=8 / rect / no-amp / max-tu-size=32 / tu-inter-depth=1 / tu-intra-depth=1 / limit-tu=0 / rdoq-level=2 / dynamic-rd=0.00 / no-ssim-rd / signhide / no-tskip / nr-intra=0 / nr-inter=0 / no-constrained-intra / strong-intra-smoothing / max-merge=3 / limit-refs=3 / limit-modes / me=3 / subme=3 / merange=57 / temporal-mvp / no-frame-dup / no-hme / weightp / no-weightb / no-analyze-src-pics / deblock=0:0 / sao / no-sao-non-deblock / rd=4 / selective-sao=4 / no-early-skip / rskip / no-fast-intra / no-tskip-fast / no-cu-lossless / no-b-intra / no-splitrd-skip / rdpenalty=0 / psy-rd=2.00 / psy-rdoq=1.00 / no-rd-refine / no-lossless / cbqpoffs=0 / crqpoffs=3 / rc=abr / bitrate=18000 / qcomp=0.60 / qpstep=4 / stats-write=0 / stats-read=2 / cplxblur=20.0 / qblur=0.5 / vbv-maxrate=24500 / vbv-bufsize=24500 / vbv-init=0.6 / vbv-end=0.6 / vbv-end-fr-adj=0.0 / ipratio=1.40 / pbratio=1.30 / aq-mode=2 / aq-strength=1.00 / cutree / zone-count=0 / no-strict-cbr / qg-size=32 / no-rc-grain / qpmax=69 / qpmin=0 / no-const-vbv / sar=1 / overscan=0 / videoformat=5 / range=1 / colorprim=2 / transfer=2 / colormatrix=2 / chromaloc=0 / display-window=0 / cll=0,0 / min-luma=0 / max-luma=1023 / log2-max-poc-lsb=8 / vui-timing-info / vui-hrd-info / no-concatenation / slices=1 / no-opt-qp-pps / no-opt-ref-list-length-pps / no-multi-pass-opt-rps / scenecut-bias=0.05 / hist-threshold=0.01 / no-opt-cu-delta-qp / no-aq-motion / no-hdr10 / no-hdr10-opt / no-dhdr10-opt / no-idr-recovery-sei / analysis-reuse-level=0 / analysis-save-reuse-level=0 / analysis-load-reuse-level=0 / scale-factor=0 / refine-intra=0 / refine-inter=0 / refine-mv=1 / refine-ctu-distortion=0 / no-limit-sao / ctu-info=0 / no-lowpass-dct / refine-analysis-type=0 / copy-pic=1 / max-ausize-factor=1.0 / no-dynamic-refine / no-single-sei / no-hevc-aq / no-svt / no-field / qp-adaptation-range=1.00 / no-scenecut-aware-qpconformance-window-offsets / right=0 / bottom=0 / decoder-max-rate=0
  23. Default : Yes
  24. Alternate group : 1
  25. Encoded date : UTC 2021-10-01 07:38:17
  26. Tagged date : UTC 2021-10-01 07:44:24
  27. Color range : Full
  28. Codec configuration box : hvcC+dvcC

  29. Audio
  30. ID : 2
  31. Format : E-AC-3 JOC
  32. Format/Info : Enhanced AC-3 with Joint Object Coding
  33. Commercial name : Dolby Digital Plus with Dolby Atmos
  34. Codec ID : ec-3
  35. Duration : 2 h 0 min
  36. Bit rate mode : Constant
  37. Bit rate : 768 kb/s
  38. Maximum bit rate : 811 kb/s
  39. Channel(s) : 6 channels
  40. Channel layout : L R C LFE Ls Rs
  41. Sampling rate : 48.0 kHz
  42. Frame rate : 31.250 FPS (1536 SPF)
  43. Compression mode : Lossy
  44. Stream size : 661 MiB (4%)
  45. Title : English
  46. Language : English
  47. Service kind : Complete Main
  48. Default : Yes
  49. Alternate group : 1
  50. Tagged date : UTC 2021-10-01 07:44:24
  51. Complexity index : Not present / 16
  52. Number of dynamic objects : 15
  53. Bed channel count : 1 channel
  54. Bed channel configuration : LFE

  55. Text #1
  56. ID : 3
  57. Format : Timed Text
  58. Codec ID : tx3g
  59. Duration : 2 h 0 min
  60. Bit rate mode : Variable
  61. Bit rate : 85 b/s
  62. Stream size : 74.6 KiB (0%)
  63. Title : English
  64. Language : English
  65. Forced : No
  66. Encoded date : UTC 2021-10-01 07:44:24
  67. Tagged date : UTC 2021-10-01 07:44:24

  68. Text #2
  69. ID : 4
  70. Format : Timed Text
  71. Codec ID : tx3g
  72. Duration : 1 h 56 min
  73. Bit rate mode : Variable
  74. Bit rate : 78 b/s
  75. Stream size : 66.4 KiB (0%)
  76. Title : Spanish
  77. Language : Spanish
  78. Forced : No
  79. Encoded date : UTC 2021-10-01 07:44:24
  80. Tagged date : UTC 2021-10-01 07:44:24
复制代码

纽瓦克诸圣 / 纽瓦克的诸多圣人 / 黑道家族前传 / 纽瓦克众圣徒:黑道家族外传 / The Many Saints of Newark: A Sopranos Story/纽瓦克众圣4k The.Many.Saints.of.Newark.2021.2160p.HMAX.WEB-DL.DDP5.1.Atmos.DV.MP4.x265-4k电影下载

纽瓦克众圣4k The.Many.Saints.of.Newark.2021.2160p.HMAX.WEB-DL.DDP5.1.Atmos.DV.MP4.x265【4k杜比视界 15.75 GB】
[Hao4k]纽瓦克众圣4k The.Many.Saints.of.Newark.2021.2160p.HMAX.WEB-DL.DDP5.1.Atmos.DV.MP4.x265-DVSUX.torrent (20.38 KB, 售价: 3 个K币)
回复

使用道具 举报

全部回复6

QQ_1C652F 发表于 2021-10-1 22:27:27

QQ_1C652F 2

2021-10-1 22:27:27

谢谢楼主无私分享
回复 支持 反对

使用道具 举报

平凡之朴 发表于 2021-10-2 12:15:37

平凡之朴 3

2021-10-2 12:15:37

黑道家族电影版?必须下,感谢楼主。
回复 支持 反对

使用道具 举报

JeamsXu 发表于 2021-10-2 20:30:17

JeamsXu 4

2021-10-2 20:30:17

這個種子下不了啊!!!!
回复 支持 反对

使用道具 举报

t618ghf 发表于 2021-10-3 10:56:23

t618ghf 5

2021-10-3 10:56:23

跪求中字,谢谢!
回复 支持 反对

使用道具 举报

aabbccddeeff 发表于 2021-10-4 10:08:06

aabbccddeeff 6

2021-10-4 10:08:06

纽瓦克众圣4k The.Many.Saints.of.Newark.2021.2160p.HMAX.WEB-DL.x265.10bit.HDR.DDP5.1.Atmos【4k HDR 15.72 GB】 这个种子下不了,请修复。
回复 支持 反对

使用道具 举报

畅通无阻9919 发表于 2021-10-4 18:41:39

畅通无阻9919 7

2021-10-4 18:41:39

这个种子怎么下载呢?不是torrent尾缀的,求赐教,谢谢。
回复 支持 反对

使用道具 举报

   发表回复

您需要登录后才可以回帖 登录 | 立即注册

返回列表 本版积分规则

  • 发布新帖

  • 客服/帮助

  • 手机APP

  • 返回顶部