微博 微信 手机APP

Hao4K影音

电影频道
电影封面:
片  名: 后窗
电影分类: 惊悚 悬疑 爱情片 
国  家: 美国 
年  代: 更早
分 辨 率: 4K(3840x2160)
电影格式: M2TS|BDMV 
画质标准: Dolby Vision HDR10 
音质编码: LPCM 
电影声道: 2.0声道 
帧数/FPS: 23.976 帧
电影语言: 中文繁体 英文原版 
资源大小: 74.56 GB
导  演: 阿尔弗雷德·希区柯克
豆瓣评分: 8.6 分
中文字幕: -
剧情简介: 摄影师杰弗里斯(詹姆斯·斯图尔特 饰)因站在赛车道中间拍摄,断了左腿,只得在家静养七周。除了保险公司的护士斯特拉(西尔玛·里特 饰)和女友丽莎·卡罗尔·弗里蒙特(格雷斯·凯利 饰)每日前来照料,百无聊赖的杰弗里斯只能在窗前闲看邻居们的日常生活以打发时间。对面公寓的二楼住着人造珠宝推销员拉尔斯·托瓦尔德(雷蒙德·伯尔 饰)及妻子安娜(艾琳·温斯顿 饰),夫妻之间争吵不断。一个雨夜,杰弗里斯看到拉尔斯提着箱子外出数次。次日,杰弗里斯又看到拉尔斯用报纸包裹一把锯和一把刀。杰弗里斯起了疑心,他怀疑拉尔斯杀害了安娜并分尸抛弃。然而,杰弗里斯并未目击案发过程,也未见到尸体。那么真相究竟如何呢?杰弗里斯的推测只是他的臆想吗?为了证实他的推测,杰弗里斯要如何寻找证据呢?
REMUX版取自UHD蓝光。在HDR10原版的基础上,用Davinci Resolve将本片根据亮度变化分割成若干段,并用内置的cmu对每段(移除淡入淡出段)进行分析,得到杜比视界动态元数据,并添加到REMUX流中,由此制作出了独家杜比视界P8元数据+4K REMUX版。

自制版收录了一条英文原版无损单声道音轨(
由DTS-HD转换为LPCM)。
字幕收录了欧洲蓝光版的中文
繁体/粤语字幕(降低亮度以匹配HDR),以及UHD自带英语字幕。



详细文件信息:
  1. Video
  2. ID                                       : 4117 (0x1015)
  3. Menu ID                                  : 1 (0x1)
  4. Format                                   : HEVC
  5. Format/Info                              : High Efficiency Video Coding
  6. Format profile                           : Main 10@L5.1@High
  7. HDR format                               : Dolby Vision, Version 1.0, dvhe.08.06, BL+RPU, HDR10 compatible / SMPTE ST 2086, HDR10 compatible
  8. Codec ID                                 : 36
  9. Duration                                 : 1 h 52 min
  10. Bit rate                                 : 87.9 Mb/s
  11. Width                                    : 3 840 pixels
  12. Height                                   : 2 160 pixels
  13. Display aspect ratio                     : 16:9
  14. Frame rate                               : 23.976 (24000/1001) FPS
  15. Color space                              : YUV
  16. Chroma subsampling                       : 4:2:0 (Type 2)
  17. Bit depth                                : 10 bits
  18. Bits/(Pixel*Frame)                       : 0.442
  19. Stream size                              : 69.0 GiB (93%)
  20. Color range                              : Limited
  21. Color primaries                          : BT.2020
  22. Transfer characteristics                 : PQ
  23. Matrix coefficients                      : BT.2020 non-constant
  24. Mastering display color primaries        : Display P3
  25. Mastering display luminance              : min: 0.0050 cd/m2, max: 1000 cd/m2
  26. Maximum Content Light Level              : 1000 cd/m2
  27. Maximum Frame-Average Light Level        : 29 cd/m2

  28. Audio
  29. ID                                       : 4352 (0x1100)
  30. Menu ID                                  : 1 (0x1)
  31. Format                                   : PCM
  32. Format settings                          : Big / Signed
  33. Muxing mode                              : Blu-ray
  34. Codec ID                                 : 128
  35. Duration                                 : 1 h 52 min
  36. Bit rate mode                            : Constant
  37. Bit rate                                 : 1 152 kb/s
  38. Channel(s)                               : 1 channel
  39. Channel layout                           : C
  40. Sampling rate                            : 48.0 kHz
  41. Bit depth                                : 24 bits
  42. Stream size                              : 927 MiB (1%)
  43. Language                                 : English

  44. Text #1
  45. ID                                       : 4768 (0x12A0)
  46. Menu ID                                  : 1 (0x1)
  47. Format                                   : PGS
  48. Codec ID                                 : 144
  49. Language                                 : Chinese

  50. Text #2
  51. ID                                       : 4769 (0x12A1)
  52. Menu ID                                  : 1 (0x1)
  53. Format                                   : PGS
  54. Codec ID                                 : 144
  55. Language                                 : Chinese

  56. Text #3
  57. ID                                       : 4770 (0x12A2)
  58. Menu ID                                  : 1 (0x1)
  59. Format                                   : PGS
  60. Codec ID                                 : 144
  61. Language                                 : English
复制代码


不确保所有支持杜比视界的设备均可正常播放,请务必先下载测试片段进行测试。
测试片段链接(阿里云盘):
https://www.aliyundrive.com/s/X1Egth9Zrcm

如测试时发现任何问题,欢迎反馈!也欢迎大家分享对这个自制杜比视界版本的看法和评价!


阿里网盘完整链接.txt (66 Bytes, 售价: 1 个K币)
回复

使用道具 举报

全部回复3

bbgrnnji 发表于 2021-10-3 07:55:13

bbgrnnji 2

2021-10-3 07:55:13

经典的老片子
回复 支持 反对

使用道具 举报

rexwu 发表于 2021-10-8 10:45:07

rexwu 3

2021-10-8 10:45:07

神作,不知多少后来的电影在模仿。
回复 支持 反对

使用道具 举报

powerc 发表于 2021-10-13 00:45:02

powerc 4

2021-10-13 00:45:02

期待楼主制作一些4K杜比视界P8版本的战争大片发布!
回复 支持 反对

使用道具 举报

   发表回复

您需要登录后才可以回帖 登录 | 立即注册

返回列表 本版积分规则

  • 发布新帖

  • 客服/帮助

  • 手机APP

  • 返回顶部