微博 微信 手机APP

Hao4K影音

电影频道
电影封面:
片  名: Blush
电影分类: 动画 
国  家: 美国 
年  代: 2021年
分 辨 率: 4K(3840x2160)
电影格式: MKV|REMUX 
画质标准: HDR 
音质编码: Dolby Digital Plus Audio 
电影声道: 其他 
帧数/FPS: 23.976 帧
电影语言: 中文简体 中文繁体 英文原版 
资源大小: 1.98 GB
导  演: -
豆瓣评分:
中文字幕: -
剧情简介: 讲述一名园艺家宇航员坠毁在一颗荒凉的矮行星上,被困许久,当一个精灵到来后,曾经的独行侠发现了建立新生活的乐趣,并意识到宇宙已经提供了惊人的救赎。
Blush.2021.HDR.2160p.WEB.h265-4k电影信息
  1. Video
  2. ID : 1
  3. Format : HEVC
  4. Format/Info : High Efficiency Video Coding
  5. Format profile : Main 10@L5@High
  6. HDR format : SMPTE ST 2086, HDR10 compatible
  7. Codec ID : V_MPEGH/ISO/HEVC
  8. Duration : 10 min 36 s
  9. Bit rate : 23.4 Mb/s
  10. Width : 3 840 pixels
  11. Height : 2 076 pixels
  12. Display aspect ratio : 1.85:1
  13. Frame rate mode : Constant
  14. Frame rate : 23.976 (23976/1000) FPS
  15. Color space : YUV
  16. Chroma subsampling : 4:2:0 (Type 2)
  17. Bit depth : 10 bits
  18. Bits/(Pixel*Frame) : 0.123
  19. Stream size : 1.73 GiB (97%)
  20. Language : English
  21. Default : Yes
  22. Forced : No
  23. Color range : Limited
  24. Color primaries : BT.2020
  25. Transfer characteristics : PQ
  26. Matrix coefficients : BT.2020 non-constant
  27. Mastering display color primaries : Display P3
  28. Mastering display luminance : min: 0.0050 cd/m2, max: 1000 cd/m2
  29. Maximum Content Light Level : 968 cd/m2
  30. Maximum Frame-Average Light Level : 164 cd/m2

  31. Audio
  32. ID : 2
  33. Format : E-AC-3 JOC
  34. Format/Info : Enhanced AC-3 with Joint Object Coding
  35. Commercial name : Dolby Digital Plus with Dolby Atmos
  36. Codec ID : A_EAC3
  37. Duration : 10 min 36 s
  38. Bit rate mode : Constant
  39. Bit rate : 768 kb/s
  40. Channel(s) : 6 channels
  41. Channel layout : L R C LFE Ls Rs
  42. Sampling rate : 48.0 kHz
  43. Frame rate : 31.250 FPS (1536 SPF)
  44. Compression mode : Lossy
  45. Stream size : 58.2 MiB (3%)
  46. Language : English
  47. Service kind : Complete Main
  48. Default : Yes
  49. Forced : No
  50. Complexity index : 16
  51. Number of dynamic objects : 15
  52. Bed channel count : 1 channel
  53. Bed channel configuration : LFE

  54. Text #1
  55. ID : 3
  56. Format : UTF-8
  57. Codec ID : S_TEXT/UTF8
  58. Codec ID/Info : UTF-8 Plain Text
  59. Duration : 9 min 58 s
  60. Bit rate : 10 b/s
  61. Count of elements : 54
  62. Stream size : 789 Bytes (0%)
  63. Title : English (SDH)
  64. Language : English
  65. Default : No
  66. Forced : No

  67. Text #2
  68. ID : 4
  69. Format : UTF-8
  70. Codec ID : S_TEXT/UTF8
  71. Codec ID/Info : UTF-8 Plain Text
  72. Duration : 1 min 35 s
  73. Bit rate : 10 b/s
  74. Count of elements : 2
  75. Stream size : 128 Bytes (0%)
  76. Title : български
  77. Language : Bulgarian
  78. Default : No
  79. Forced : No

  80. Text #3
  81. ID : 5
  82. Format : UTF-8
  83. Codec ID : S_TEXT/UTF8
  84. Codec ID/Info : UTF-8 Plain Text
  85. Duration : 1 min 26 s
  86. Bit rate : 2 b/s
  87. Count of elements : 2
  88. Stream size : 28.0 Bytes (0%)
  89. Title : Čeština
  90. Language : Czech
  91. Default : No
  92. Forced : No

  93. Text #4
  94. ID : 6
  95. Format : UTF-8
  96. Codec ID : S_TEXT/UTF8
  97. Codec ID/Info : UTF-8 Plain Text
  98. Duration : 1 min 35 s
  99. Bit rate : 8 b/s
  100. Count of elements : 2
  101. Stream size : 104 Bytes (0%)
  102. Title : Ελληνικά
  103. Language : Greek
  104. Default : No
  105. Forced : No

  106. Text #5
  107. ID : 7
  108. Format : UTF-8
  109. Codec ID : S_TEXT/UTF8
  110. Codec ID/Info : UTF-8 Plain Text
  111. Duration : 1 min 35 s
  112. Bit rate : 4 b/s
  113. Count of elements : 2
  114. Stream size : 54.0 Bytes (0%)
  115. Title : eesti
  116. Language : Estonian
  117. Default : No
  118. Forced : No

  119. Text #6
  120. ID : 8
  121. Format : UTF-8
  122. Codec ID : S_TEXT/UTF8
  123. Codec ID/Info : UTF-8 Plain Text
  124. Duration : 1 min 35 s
  125. Bit rate : 7 b/s
  126. Count of elements : 2
  127. Stream size : 85.0 Bytes (0%)
  128. Title : עברית
  129. Language : Hebrew
  130. Default : No
  131. Forced : No

  132. Text #7
  133. ID : 9
  134. Format : UTF-8
  135. Codec ID : S_TEXT/UTF8
  136. Codec ID/Info : UTF-8 Plain Text
  137. Duration : 1 min 35 s
  138. Bit rate : 7 b/s
  139. Count of elements : 3
  140. Stream size : 86.0 Bytes (0%)
  141. Title : magyar
  142. Language : Hungarian
  143. Default : No
  144. Forced : No

  145. Text #8
  146. ID : 10
  147. Format : UTF-8
  148. Codec ID : S_TEXT/UTF8
  149. Codec ID/Info : UTF-8 Plain Text
  150. Duration : 1 min 35 s
  151. Bit rate : 5 b/s
  152. Count of elements : 2
  153. Stream size : 71.0 Bytes (0%)
  154. Title : Bahasa Indonesia
  155. Language : Indonesian
  156. Default : No
  157. Forced : No

  158. Text #9
  159. ID : 11
  160. Format : UTF-8
  161. Codec ID : S_TEXT/UTF8
  162. Codec ID/Info : UTF-8 Plain Text
  163. Duration : 1 min 35 s
  164. Bit rate : 5 b/s
  165. Count of elements : 2
  166. Stream size : 68.0 Bytes (0%)
  167. Title : lietuvių
  168. Language : Lithuanian
  169. Default : No
  170. Forced : No

  171. Text #10
  172. ID : 12
  173. Format : UTF-8
  174. Codec ID : S_TEXT/UTF8
  175. Codec ID/Info : UTF-8 Plain Text
  176. Duration : 1 min 35 s
  177. Bit rate : 4 b/s
  178. Count of elements : 2
  179. Stream size : 51.0 Bytes (0%)
  180. Title : latviešu
  181. Language : Latvian
  182. Default : No
  183. Forced : No

  184. Text #11
  185. ID : 13
  186. Format : UTF-8
  187. Codec ID : S_TEXT/UTF8
  188. Codec ID/Info : UTF-8 Plain Text
  189. Duration : 1 min 35 s
  190. Bit rate : 5 b/s
  191. Count of elements : 2
  192. Stream size : 66.0 Bytes (0%)
  193. Title : Bahasa Melayu
  194. Language : Malay
  195. Default : No
  196. Forced : No

  197. Text #12
  198. ID : 14
  199. Format : UTF-8
  200. Codec ID : S_TEXT/UTF8
  201. Codec ID/Info : UTF-8 Plain Text
  202. Duration : 1 min 35 s
  203. Bit rate : 2 b/s
  204. Count of elements : 2
  205. Stream size : 35.0 Bytes (0%)
  206. Title : Português
  207. Language : Portuguese
  208. Default : No
  209. Forced : No

  210. Text #13
  211. ID : 15
  212. Format : UTF-8
  213. Codec ID : S_TEXT/UTF8
  214. Codec ID/Info : UTF-8 Plain Text
  215. Duration : 1 min 26 s
  216. Bit rate : 4 b/s
  217. Count of elements : 2
  218. Stream size : 49.0 Bytes (0%)
  219. Title : Slovenčina
  220. Language : Slovak
  221. Default : No
  222. Forced : No

  223. Text #14
  224. ID : 16
  225. Format : UTF-8
  226. Codec ID : S_TEXT/UTF8
  227. Codec ID/Info : UTF-8 Plain Text
  228. Duration : 1 min 35 s
  229. Bit rate : 5 b/s
  230. Count of elements : 2
  231. Stream size : 63.0 Bytes (0%)
  232. Title : slovenščina
  233. Language : Slovenian
  234. Default : No
  235. Forced : No

  236. Text #15
  237. ID : 17
  238. Format : UTF-8
  239. Codec ID : S_TEXT/UTF8
  240. Codec ID/Info : UTF-8 Plain Text
  241. Duration : 1 min 35 s
  242. Bit rate : 18 b/s
  243. Count of elements : 2
  244. Stream size : 220 Bytes (0%)
  245. Title : தமிழ்
  246. Language : Tamil
  247. Default : No
  248. Forced : No

  249. Text #16
  250. ID : 18
  251. Format : UTF-8
  252. Codec ID : S_TEXT/UTF8
  253. Codec ID/Info : UTF-8 Plain Text
  254. Duration : 1 min 35 s
  255. Bit rate : 17 b/s
  256. Count of elements : 2
  257. Stream size : 206 Bytes (0%)
  258. Title : తెలుగు
  259. Language : Telugu
  260. Default : No
  261. Forced : No

  262. Text #17
  263. ID : 19
  264. Format : UTF-8
  265. Codec ID : S_TEXT/UTF8
  266. Codec ID/Info : UTF-8 Plain Text
  267. Duration : 1 min 35 s
  268. Bit rate : 12 b/s
  269. Count of elements : 3
  270. Stream size : 146 Bytes (0%)
  271. Title : українська
  272. Language : Ukrainian
  273. Default : No
  274. Forced : No

  275. Text #18
  276. ID : 20
  277. Format : UTF-8
  278. Codec ID : S_TEXT/UTF8
  279. Codec ID/Info : UTF-8 Plain Text
  280. Duration : 10 min 18 s
  281. Bit rate : 14 b/s
  282. Count of elements : 56
  283. Stream size : 1.09 KiB (0%)
  284. Title : العربية (SDH)
  285. Language : Arabic
  286. Default : No
  287. Forced : No

  288. Text #19
  289. ID : 21
  290. Format : UTF-8
  291. Codec ID : S_TEXT/UTF8
  292. Codec ID/Info : UTF-8 Plain Text
  293. Duration : 10 min 18 s
  294. Bit rate : 11 b/s
  295. Count of elements : 55
  296. Stream size : 886 Bytes (0%)
  297. Title : dansk (SDH)
  298. Language : Danish
  299. Default : No
  300. Forced : No

  301. Text #20
  302. ID : 22
  303. Format : UTF-8
  304. Codec ID : S_TEXT/UTF8
  305. Codec ID/Info : UTF-8 Plain Text
  306. Duration : 10 min 18 s
  307. Bit rate : 12 b/s
  308. Count of elements : 57
  309. Stream size : 979 Bytes (0%)
  310. Title : Deutsch (SDH)
  311. Language : German
  312. Default : No
  313. Forced : No

  314. Text #21
  315. ID : 23
  316. Format : UTF-8
  317. Codec ID : S_TEXT/UTF8
  318. Codec ID/Info : UTF-8 Plain Text
  319. Duration : 10 min 9 s
  320. Bit rate : 10 b/s
  321. Count of elements : 54
  322. Stream size : 793 Bytes (0%)
  323. Title : Español (España) (SDH)
  324. Language : Spanish
  325. Default : No
  326. Forced : No

  327. Text #22
  328. ID : 24
  329. Format : UTF-8
  330. Codec ID : S_TEXT/UTF8
  331. Codec ID/Info : UTF-8 Plain Text
  332. Duration : 10 min 18 s
  333. Bit rate : 12 b/s
  334. Count of elements : 57
  335. Stream size : 989 Bytes (0%)
  336. Title : Español (Latinoamérica) (SDH)
  337. Language : Spanish
  338. Default : No
  339. Forced : No

  340. Text #23
  341. ID : 25
  342. Format : UTF-8
  343. Codec ID : S_TEXT/UTF8
  344. Codec ID/Info : UTF-8 Plain Text
  345. Duration : 10 min 18 s
  346. Bit rate : 13 b/s
  347. Count of elements : 56
  348. Stream size : 1.02 KiB (0%)
  349. Title : Suomi (SDH)
  350. Language : Finnish
  351. Default : No
  352. Forced : No

  353. Text #24
  354. ID : 26
  355. Format : UTF-8
  356. Codec ID : S_TEXT/UTF8
  357. Codec ID/Info : UTF-8 Plain Text
  358. Duration : 10 min 18 s
  359. Bit rate : 13 b/s
  360. Count of elements : 57
  361. Stream size : 1.04 KiB (0%)
  362. Title : Français (Canada) (SDH)
  363. Language : French
  364. Default : No
  365. Forced : No

  366. Text #25
  367. ID : 27
  368. Format : UTF-8
  369. Codec ID : S_TEXT/UTF8
  370. Codec ID/Info : UTF-8 Plain Text
  371. Duration : 10 min 18 s
  372. Bit rate : 13 b/s
  373. Count of elements : 56
  374. Stream size : 1.03 KiB (0%)
  375. Title : Français (France) (SDH)
  376. Language : French
  377. Default : No
  378. Forced : No

  379. Text #26
  380. ID : 28
  381. Format : UTF-8
  382. Codec ID : S_TEXT/UTF8
  383. Codec ID/Info : UTF-8 Plain Text
  384. Duration : 10 min 18 s
  385. Bit rate : 35 b/s
  386. Count of elements : 57
  387. Stream size : 2.68 KiB (0%)
  388. Title : हिन्दी (SDH)
  389. Language : Hindi
  390. Default : No
  391. Forced : No

  392. Text #27
  393. ID : 29
  394. Format : UTF-8
  395. Codec ID : S_TEXT/UTF8
  396. Codec ID/Info : UTF-8 Plain Text
  397. Duration : 10 min 18 s
  398. Bit rate : 12 b/s
  399. Count of elements : 56
  400. Stream size : 989 Bytes (0%)
  401. Title : Italiano (SDH)
  402. Language : Italian
  403. Default : No
  404. Forced : No

  405. Text #28
  406. ID : 30
  407. Format : UTF-8
  408. Codec ID : S_TEXT/UTF8
  409. Codec ID/Info : UTF-8 Plain Text
  410. Duration : 10 min 16 s
  411. Bit rate : 19 b/s
  412. Count of elements : 68
  413. Stream size : 1.49 KiB (0%)
  414. Title : 日本語 (SDH)
  415. Language : Japanese
  416. Default : No
  417. Forced : No

  418. Text #29
  419. ID : 31
  420. Format : UTF-8
  421. Codec ID : S_TEXT/UTF8
  422. Codec ID/Info : UTF-8 Plain Text
  423. Duration : 10 min 18 s
  424. Bit rate : 20 b/s
  425. Count of elements : 57
  426. Stream size : 1.53 KiB (0%)
  427. Title : 한국어 (SDH)
  428. Language : Korean
  429. Default : No
  430. Forced : No

  431. Text #30
  432. ID : 32
  433. Format : UTF-8
  434. Codec ID : S_TEXT/UTF8
  435. Codec ID/Info : UTF-8 Plain Text
  436. Duration : 10 min 18 s
  437. Bit rate : 10 b/s
  438. Count of elements : 56
  439. Stream size : 841 Bytes (0%)
  440. Title : Nederlands (België) (SDH)
  441. Language : Dutch
  442. Default : No
  443. Forced : No

  444. Text #31
  445. ID : 33
  446. Format : UTF-8
  447. Codec ID : S_TEXT/UTF8
  448. Codec ID/Info : UTF-8 Plain Text
  449. Duration : 10 min 18 s
  450. Bit rate : 10 b/s
  451. Count of elements : 54
  452. Stream size : 836 Bytes (0%)
  453. Title : Nederlands (SDH)
  454. Language : Dutch
  455. Default : No
  456. Forced : No

  457. Text #32
  458. ID : 34
  459. Format : UTF-8
  460. Codec ID : S_TEXT/UTF8
  461. Codec ID/Info : UTF-8 Plain Text
  462. Duration : 10 min 18 s
  463. Bit rate : 10 b/s
  464. Count of elements : 56
  465. Stream size : 775 Bytes (0%)
  466. Title : norsk (SDH)
  467. Language : Norwegian
  468. Default : No
  469. Forced : No

  470. Text #33
  471. ID : 35
  472. Format : UTF-8
  473. Codec ID : S_TEXT/UTF8
  474. Codec ID/Info : UTF-8 Plain Text
  475. Duration : 10 min 18 s
  476. Bit rate : 12 b/s
  477. Count of elements : 57
  478. Stream size : 999 Bytes (0%)
  479. Title : polski (SDH)
  480. Language : Polish
  481. Default : No
  482. Forced : No

  483. Text #34
  484. ID : 36
  485. Format : UTF-8
  486. Codec ID : S_TEXT/UTF8
  487. Codec ID/Info : UTF-8 Plain Text
  488. Duration : 10 min 18 s
  489. Bit rate : 10 b/s
  490. Count of elements : 56
  491. Stream size : 793 Bytes (0%)
  492. Title : Português (Brasil) (SDH)
  493. Language : Portuguese
  494. Default : No
  495. Forced : No

  496. Text #35
  497. ID : 37
  498. Format : UTF-8
  499. Codec ID : S_TEXT/UTF8
  500. Codec ID/Info : UTF-8 Plain Text
  501. Duration : 10 min 18 s
  502. Bit rate : 21 b/s
  503. Count of elements : 59
  504. Stream size : 1.63 KiB (0%)
  505. Title : Русский (SDH)
  506. Language : Russian
  507. Default : No
  508. Forced : No

  509. Text #36
  510. ID : 38
  511. Format : UTF-8
  512. Codec ID : S_TEXT/UTF8
  513. Codec ID/Info : UTF-8 Plain Text
  514. Duration : 10 min 18 s
  515. Bit rate : 11 b/s
  516. Count of elements : 56
  517. Stream size : 887 Bytes (0%)
  518. Title : Svenska (SDH)
  519. Language : Swedish
  520. Default : No
  521. Forced : No

  522. Text #37
  523. ID : 39
  524. Format : UTF-8
  525. Codec ID : S_TEXT/UTF8
  526. Codec ID/Info : UTF-8 Plain Text
  527. Duration : 10 min 18 s
  528. Bit rate : 29 b/s
  529. Count of elements : 56
  530. Stream size : 2.20 KiB (0%)
  531. Title : ไทย (SDH)
  532. Language : Thai
  533. Default : No
  534. Forced : No

  535. Text #38
  536. ID : 40
  537. Format : UTF-8
  538. Codec ID : S_TEXT/UTF8
  539. Codec ID/Info : UTF-8 Plain Text
  540. Duration : 10 min 18 s
  541. Bit rate : 14 b/s
  542. Count of elements : 56
  543. Stream size : 1.09 KiB (0%)
  544. Title : Türkçe (SDH)
  545. Language : Turkish
  546. Default : No
  547. Forced : No

  548. Text #39
  549. ID : 41
  550. Format : UTF-8
  551. Codec ID : S_TEXT/UTF8
  552. Codec ID/Info : UTF-8 Plain Text
  553. Duration : 10 min 18 s
  554. Bit rate : 19 b/s
  555. Count of elements : 57
  556. Stream size : 1.44 KiB (0%)
  557. Title : Tiếng Việt (SDH)
  558. Language : Vietnamese
  559. Default : No
  560. Forced : No

  561. Text #40
  562. ID : 42
  563. Format : UTF-8
  564. Codec ID : S_TEXT/UTF8
  565. Codec ID/Info : UTF-8 Plain Text
  566. Duration : 10 min 18 s
  567. Bit rate : 11 b/s
  568. Count of elements : 57
  569. Stream size : 925 Bytes (0%)
  570. Title : 廣東話 (SDH)
  571. Language : Chinese
  572. Default : No
  573. Forced : No

  574. Text #41
  575. ID : 43
  576. Format : UTF-8
  577. Codec ID : S_TEXT/UTF8
  578. Codec ID/Info : UTF-8 Plain Text
  579. Duration : 10 min 18 s
  580. Bit rate : 11 b/s
  581. Count of elements : 57
  582. Stream size : 927 Bytes (0%)
  583. Title : 中文(繁體) (SDH)
  584. Language : Chinese
  585. Default : No
  586. Forced : No

  587. Text #42
  588. ID : 44
  589. Format : UTF-8
  590. Codec ID : S_TEXT/UTF8
  591. Codec ID/Info : UTF-8 Plain Text
  592. Duration : 10 min 18 s
  593. Bit rate : 11 b/s
  594. Count of elements : 56
  595. Stream size : 916 Bytes (0%)
  596. Title : 中文(简体) (SDH)
  597. Language : Chinese
  598. Default : No
  599. Forced : No
复制代码

Blush.2021.HDR.2160p.WEB.h265-4k电影下载

Blush.2021.HDR.2160p.WEB.h265【4k HDR 1.98 GB】
[Hao4k]Blush.2021.HDR.2160p.WEB.h265-KOGi.torrent (20.57 KB)
回复

使用道具 举报

全部回复10

mingming8 发表于 2021-10-3 07:54:44

mingming8 2

2021-10-3 07:54:44

感谢共享!!
回复 支持 反对

使用道具 举报

用户名1 发表于 2021-10-3 11:36:18 Hao4K手机版

用户名1 3

2021-10-3 11:36:18

原来G数只代表清晰度吗,只要像素达标了,多小都是4k
回复 支持 0 反对 1

使用道具 举报

xujingchou 发表于 2021-10-3 12:47:47

xujingchou 4

2021-10-3 12:47:47

用户名1 发表于 2021-10-3 11:36
原来G数只代表清晰度吗,只要像素达标了,多小都是4k

4ks是分辨率啊,容量和时长、码率、视频和音频轨道等等有关,你用容量定义清晰度也是第一人
回复 支持 0 反对 1

使用道具 举报

老鼠响叮当燚燚 发表于 2021-10-3 18:09:55

老鼠响叮当燚燚 5

2021-10-3 18:09:55

谢谢楼主发片分享
回复 支持 反对

使用道具 举报

gd-man 发表于 2021-10-4 08:48:33

gd-man 6

2021-10-4 08:48:33

感觉很不错,谢谢
回复 支持 反对

使用道具 举报

liyun80000 发表于 2021-10-4 15:28:47

liyun80000 7

2021-10-4 15:28:47

感谢楼主分享
回复 支持 反对

使用道具 举报

jarod1128 发表于 2021-10-4 19:35:38

jarod1128 8

2021-10-4 19:35:38

用户名1 发表于 2021-10-3 11:36
原来G数只代表清晰度吗,只要像素达标了,多小都是4k

好像就是10分钟的视频
回复 支持 反对

使用道具 举报

a631977980 发表于 2021-10-4 21:55:37

a631977980 9

2021-10-4 21:55:37

感谢分享!!
回复 支持 反对

使用道具 举报

siyu04 发表于 2021-10-6 12:27:46

siyu04 10

2021-10-6 12:27:46

好看么,
回复 支持 反对

使用道具 举报

yuuuu1942 发表于 2021-10-12 13:17:26

yuuuu1942 11

2021-10-12 13:17:26

谢谢楼主。这个片子有点意思。
回复 支持 反对

使用道具 举报

   发表回复

您需要登录后才可以回帖 登录 | 立即注册

返回列表 本版积分规则

  • 发布新帖

  • 客服/帮助

  • 手机APP

  • 返回顶部